  0
SECTION
  2
HEADER
  9
$ACADVER
  1
AC1018
  9
$ACADMAINTVER
 70
     0
  9
$DWGCODEPAGE
  3
ANSI_1252
  9
$INSBASE
 10
0.0
 20
0.0
 30
0.0
  9
$EXTMIN
 10
-98.11188344615806
 20
316.9332350061358
 30
0.0
  9
$EXTMAX
 10
198.88811655384
 20
526.9332350061359
 30
0.0
  9
$LIMMIN
 10
0.0
 20
0.0
  9
$LIMMAX
 10
12.0
 20
9.0
  9
$ORTHOMODE
 70
     0
  9
$REGENMODE
 70
     1
  9
$FILLMODE
 70
     1
  9
$QTEXTMODE
 70
     0
  9
$MIRRTEXT
 70
     1
  9
$LTSCALE
 40
1.0
  9
$ATTMODE
 70
     1
  9
$TEXTSIZE
 40
0.2
  9
$TRACEWID
 40
0.05
  9
$TEXTSTYLE
  7
Standard
  9
$CLAYER
  8
0
  9
$CELTYPE
  6
ByLayer
  9
$CECOLOR
 62
   256
  9
$CELTSCALE
 40
1.0
  9
$DISPSILH
 70
     0
  9
$DIMSCALE
 40
1.0
  9
$DIMASZ
 40
0.18
  9
$DIMEXO
 40
0.0625
  9
$DIMDLI
 40
0.38
  9
$DIMRND
 40
0.0
  9
$DIMDLE
 40
0.0
  9
$DIMEXE
 40
0.18
  9
$DIMTP
 40
0.0
  9
$DIMTM
 40
0.0
  9
$DIMTXT
 40
0.18
  9
$DIMCEN
 40
0.09
  9
$DIMTSZ
 40
0.0
  9
$DIMTOL
 70
     0
  9
$DIMLIM
 70
     0
  9
$DIMTIH
 70
     1
  9
$DIMTOH
 70
     1
  9
$DIMSE1
 70
     0
  9
$DIMSE2
 70
     0
  9
$DIMTAD
 70
     0
  9
$DIMZIN
 70
     0
  9
$DIMBLK
  1

  9
$DIMASO
 70
     1
  9
$DIMSHO
 70
     1
  9
$DIMPOST
  1

  9
$DIMAPOST
  1

  9
$DIMALT
 70
     0
  9
$DIMALTD
 70
     2
  9
$DIMALTF
 40
25.4
  9
$DIMLFAC
 40
1.0
  9
$DIMTOFL
 70
     0
  9
$DIMTVP
 40
0.0
  9
$DIMTIX
 70
     0
  9
$DIMSOXD
 70
     0
  9
$DIMSAH
 70
     0
  9
$DIMBLK1
  1

  9
$DIMBLK2
  1

  9
$DIMSTYLE
  2
Standard
  9
$DIMCLRD
 70
     0
  9
$DIMCLRE
 70
     0
  9
$DIMCLRT
 70
     0
  9
$DIMTFAC
 40
1.0
  9
$DIMGAP
 40
0.09
  9
$DIMJUST
 70
     0
  9
$DIMSD1
 70
     0
  9
$DIMSD2
 70
     0
  9
$DIMTOLJ
 70
     1
  9
$DIMTZIN
 70
     0
  9
$DIMALTZ
 70
     0
  9
$DIMALTTZ
 70
     0
  9
$DIMUPT
 70
     0
  9
$DIMDEC
 70
     4
  9
$DIMTDEC
 70
     4
  9
$DIMALTU
 70
     2
  9
$DIMALTTD
 70
     2
  9
$DIMTXSTY
  7
Standard
  9
$DIMAUNIT
 70
     0
  9
$DIMADEC
 70
     0
  9
$DIMALTRND
 40
0.0
  9
$DIMAZIN
 70
     0
  9
$DIMDSEP
 70
    46
  9
$DIMATFIT
 70
     3
  9
$DIMFRAC
 70
     0
  9
$DIMLDRBLK
  1

  9
$DIMLUNIT
 70
     2
  9
$DIMLWD
 70
    -2
  9
$DIMLWE
 70
    -2
  9
$DIMTMOVE
 70
     0
  9
$LUNITS
 70
     2
  9
$LUPREC
 70
     4
  9
$SKETCHINC
 40
0.1
  9
$FILLETRAD
 40
0.5
  9
$AUNITS
 70
     0
  9
$AUPREC
 70
     0
  9
$MENU
  1
.
  9
$ELEVATION
 40
0.0
  9
$PELEVATION
 40
0.0
  9
$THICKNESS
 40
0.0
  9
$LIMCHECK
 70
     0
  9
$CHAMFERA
 40
0.5
  9
$CHAMFERB
 40
0.5
  9
$CHAMFERC
 40
1.0
  9
$CHAMFERD
 40
0.0
  9
$SKPOLY
 70
     0
  9
$TDCREATE
 40
2458214.668965764
  9
$TDUCREATE
 40
2458214.58563243
  9
$TDUPDATE
 40
2458214.668966667
  9
$TDUUPDATE
 40
2458214.585633333
  9
$TDINDWG
 40
0.0000000116
  9
$TDUSRTIMER
 40
0.0000000116
  9
$USRTIMER
 70
     1
  9
$ANGBASE
 50
0.0
  9
$ANGDIR
 70
     0
  9
$PDMODE
 70
     0
  9
$PDSIZE
 40
0.0
  9
$PLINEWID
 40
0.0
  9
$SPLFRAME
 70
     0
  9
$SPLINETYPE
 70
     6
  9
$SPLINESEGS
 70
     8
  9
$HANDSEED
  5
416
  9
$SURFTAB1
 70
     6
  9
$SURFTAB2
 70
     6
  9
$SURFTYPE
 70
     6
  9
$SURFU
 70
     6
  9
$SURFV
 70
     6
  9
$UCSBASE
  2

  9
$UCSNAME
  2

  9
$UCSORG
 10
0.0
 20
0.0
 30
0.0
  9
$UCSXDIR
 10
1.0
 20
0.0
 30
0.0
  9
$UCSYDIR
 10
0.0
 20
1.0
 30
0.0
  9
$UCSORTHOREF
  2

  9
$UCSORTHOVIEW
 70
     0
  9
$UCSORGTOP
 10
0.0
 20
0.0
 30
0.0
  9
$UCSORGBOTTOM
 10
0.0
 20
0.0
 30
0.0
  9
$UCSORGLEFT
 10
0.0
 20
0.0
 30
0.0
  9
$UCSORGRIGHT
 10
0.0
 20
0.0
 30
0.0
  9
$UCSORGFRONT
 10
0.0
 20
0.0
 30
0.0
  9
$UCSORGBACK
 10
0.0
 20
0.0
 30
0.0
  9
$PUCSBASE
  2

  9
$PUCSNAME
  2

  9
$PUCSORG
 10
0.0
 20
0.0
 30
0.0
  9
$PUCSXDIR
 10
1.0
 20
0.0
 30
0.0
  9
$PUCSYDIR
 10
0.0
 20
1.0
 30
0.0
  9
$PUCSORTHOREF
  2

  9
$PUCSORTHOVIEW
 70
     0
  9
$PUCSORGTOP
 10
0.0
 20
0.0
 30
0.0
  9
$PUCSORGBOTTOM
 10
0.0
 20
0.0
 30
0.0
  9
$PUCSORGLEFT
 10
0.0
 20
0.0
 30
0.0
  9
$PUCSORGRIGHT
 10
0.0
 20
0.0
 30
0.0
  9
$PUCSORGFRONT
 10
0.0
 20
0.0
 30
0.0
  9
$PUCSORGBACK
 10
0.0
 20
0.0
 30
0.0
  9
$USERI1
 70
     0
  9
$USERI2
 70
     0
  9
$USERI3
 70
     0
  9
$USERI4
 70
     0
  9
$USERI5
 70
     0
  9
$USERR1
 40
18.1
  9
$USERR2
 40
0.0
  9
$USERR3
 40
0.0
  9
$USERR4
 40
0.0
  9
$USERR5
 40
0.0
  9
$WORLDVIEW
 70
     1
  9
$SHADEDGE
 70
     3
  9
$SHADEDIF
 70
    70
  9
$TILEMODE
 70
     1
  9
$MAXACTVP
 70
    64
  9
$PINSBASE
 10
0.0
 20
0.0
 30
0.0
  9
$PLIMCHECK
 70
     0
  9
$PEXTMIN
 10
1.00000000000000E+20
 20
1.00000000000000E+20
 30
1.00000000000000E+20
  9
$PEXTMAX
 10
-1.00000000000000E+20
 20
-1.00000000000000E+20
 30
-1.00000000000000E+20
  9
$PLIMMIN
 10
0.0
 20
0.0
  9
$PLIMMAX
 10
12.0
 20
9.0
  9
$UNITMODE
 70
     0
  9
$VISRETAIN
 70
     1
  9
$PLINEGEN
 70
     0
  9
$PSLTSCALE
 70
     1
  9
$TREEDEPTH
 70
  3020
  9
$CMLSTYLE
  2
Standard
  9
$CMLJUST
 70
     0
  9
$CMLSCALE
 40
1.0
  9
$PROXYGRAPHICS
 70
     1
  9
$MEASUREMENT
 70
     1
  9
$CELWEIGHT
370
    -1
  9
$ENDCAPS
280
     0
  9
$JOINSTYLE
280
     0
  9
$LWDISPLAY
290
     0
  9
$INSUNITS
 70
     4
  9
$HYPERLINKBASE
  1

  9
$STYLESHEET
  1

  9
$XEDIT
290
     1
  9
$CEPSNTYPE
380
     0
  9
$PSTYLEMODE
290
     1
  9
$FINGERPRINTGUID
  2
{52871CC1-2A87-4B74-A05E-89AF8611762E}
  9
$VERSIONGUID
  2
{FAEB1C32-E019-11D5-929B-00C0DF256EC4}
  9
$EXTNAMES
290
     1
  9
$PSVPSCALE
 40
0.0
  9
$OLESTARTUP
290
     0
  9
$SORTENTS
280
   127
  9
$INDEXCTL
280
     0
  9
$HIDETEXT
280
     1
  9
$XCLIPFRAME
290
     0
  9
$HALOGAP
280
     0
  9
$OBSCOLOR
 70
   257
  9
$OBSLTYPE
280
     0
  9
$INTERSECTIONDISPLAY
280
     0
  9
$INTERSECTIONCOLOR
 70
   257
  9
$DIMASSOC
280
     2
  9
$PROJECTNAME
  1

  0
ENDSEC
  0
SECTION
  2
CLASSES
  0
CLASS
  1
ACDBDICTIONARYWDFLT
  2
AcDbDictionaryWithDefault
  3
ObjectDBX Classes
 90
        0
 91
        4
280
     0
281
     0
  0
CLASS
  1
VISUALSTYLE
  2
AcDbVisualStyle
  3
ObjectDBX Classes
 90
     4095
 91
        4
280
     0
281
     0
  0
CLASS
  1
MATERIAL
  2
AcDbMaterial
  3
ObjectDBX Classes
 90
     1153
 91
        4
280
     0
281
     0
  0
ENDSEC
  0
SECTION
  2
TABLES
  0
TABLE
  2
VPORT
  5
8
330
0
100
AcDbSymbolTable
 70
     1
  0
VPORT
  5
29
330
8
100
AcDbSymbolTableRecord
100
AcDbViewportTableRecord
  2
*Active
 70
     0
 10
0.0
 20
0.0
 11
1.0
 21
1.0
 12
50.38811655384097
 22
421.9332350061359
 13
0.0
 23
0.0
 14
0.5
 24
0.5
 15
0.5
 25
0.5
 16
0.0
 26
0.0
 36
1.0
 17
0.0
 27
0.0
 37
0.0
 40
231.0000000000001
 41
1.60267857142857
 42
50.0
 43
0.0
 44
0.0
 50
0.0
 51
0.0
 71
     0
 72
   100
 73
     1
 74
     3
 75
     0
 76
     0
 77
     0
 78
     0
281
     0
 65
     1
110
0.0
120
0.0
130
0.0
111
1.0
121
0.0
131
0.0
112
0.0
122
1.0
132
0.0
 79
     0
146
0.0
  0
ENDTAB
  0
TABLE
  2
LTYPE
  5
5
330
0
100
AcDbSymbolTable
 70
     8
  0
LTYPE
  5
14
330
5
100
AcDbSymbolTableRecord
100
AcDbLinetypeTableRecord
  2
ByBlock
 70
     0
  3

 72
    65
 73
     0
 40
0.0
  0
LTYPE
  5
15
330
5
100
AcDbSymbolTableRecord
100
AcDbLinetypeTableRecord
  2
ByLayer
 70
     0
  3

 72
    65
 73
     0
 40
0.0
  0
LTYPE
  5
16
330
5
100
AcDbSymbolTableRecord
100
AcDbLinetypeTableRecord
  2
Continuous
 70
     0
  3
Solid line
 72
    65
 73
     0
 40
0.0
  0
LTYPE
  5
3F
330
5
100
AcDbSymbolTableRecord
100
AcDbLinetypeTableRecord
  2
DASHED
 70
     0
  3
Dashed
 72
    65
 73
     2
 40
15.0
 49
7.0
 74
     0
 49
-8.0
 74
     0
  0
LTYPE
  5
40
330
5
100
AcDbSymbolTableRecord
100
AcDbLinetypeTableRecord
  2
DOTTED
 70
     0
  3
Dotted
 72
    65
 73
     2
 40
1.0
 49
0.0
 74
     0
 49
-1.0
 74
     0
  0
LTYPE
  5
41
330
5
100
AcDbSymbolTableRecord
100
AcDbLinetypeTableRecord
  2
DOT_CENTER
 70
     0
  3
Dot_Center
 72
    65
 73
     4
 40
14.0
 49
12.0
 74
     0
 49
-1.0
 74
     0
 49
0.0
 74
     0
 49
-1.0
 74
     0
  0
LTYPE
  5
42
330
5
100
AcDbSymbolTableRecord
100
AcDbLinetypeTableRecord
  2
LONG_DASHED
 70
     0
  3
Long_Dashed
 72
    65
 73
     2
 40
15.0
 49
10.0
 74
     0
 49
-5.0
 74
     0
  0
LTYPE
  5
43
330
5
100
AcDbSymbolTableRecord
100
AcDbLinetypeTableRecord
  2
DASH_CENTER
 70
     0
  3
Dash_Center
 72
    65
 73
     4
 40
14.0
 49
11.0
 74
     0
 49
-1.0
 74
     0
 49
1.0
 74
     0
 49
-1.0
 74
     0
  0
LTYPE
  5
44
330
5
100
AcDbSymbolTableRecord
100
AcDbLinetypeTableRecord
  2
PHANTOM
 70
     0
  3
Phantom
 72
    65
 73
     6
 40
13.0
 49
10.0
 74
     0
 49
-1.0
 74
     0
 49
0.0
 74
     0
 49
-1.0
 74
     0
 49
0.0
 74
     0
 49
-1.0
 74
     0
  0
LTYPE
  5
45
330
5
100
AcDbSymbolTableRecord
100
AcDbLinetypeTableRecord
  2
CENTER_DASH_DASH
 70
     0
  3
Center_Dash_Dash
 72
    65
 73
     6
 40
14.0
 49
9.0
 74
     0
 49
-1.0
 74
     0
 49
1.0
 74
     0
 49
-1.0
 74
     0
 49
1.0
 74
     0
 49
-1.0
 74
     0
  0
ENDTAB
  0
TABLE
  2
LAYER
  5
2
330
0
100
AcDbSymbolTable
 70
     2
  0
LAYER
  5
10
330
2
100
AcDbSymbolTableRecord
100
AcDbLayerTableRecord
  2
0
 70
     0
 62
     7
  6
Continuous
370
    -3
390
F
  0
LAYER
  5
46
330
2
100
AcDbSymbolTableRecord
100
AcDbLayerTableRecord
  2
1
 70
     0
 62
     7
  6
Continuous
370
    -3
390
F
  0
ENDTAB
  0
TABLE
  2
STYLE
  5
3
330
0
100
AcDbSymbolTable
 70
     5
  0
STYLE
  5
11
330
3
100
AcDbSymbolTableRecord
100
AcDbTextStyleTableRecord
  2
Standard
 70
     0
 40
0.0
 41
1.0
 50
0.0
 71
     0
 42
0.2
  3
txt
  4

  0
STYLE
  5
E4
330
3
100
AcDbSymbolTableRecord
100
AcDbTextStyleTableRecord
  2
CONVERTER_11
 70
     0
 40
0.0
 41
0.9
 50
0.0
 71
     0
 42
0.2
  3
txt.shx
  4

  0
STYLE
  5
3B1
330
3
100
AcDbSymbolTableRecord
100
AcDbTextStyleTableRecord
  2
CONVERTER_12
 70
     0
 40
0.0
 41
0.81
 50
0.0
 71
     0
 42
0.2
  3
txt.shx
  4

  0
STYLE
  5
3C7
330
3
100
AcDbSymbolTableRecord
100
AcDbTextStyleTableRecord
  2
CONVERTER_13
 70
     0
 40
0.0
 41
0.72
 50
0.0
 71
     0
 42
0.2
  3
txt.shx
  4

  0
STYLE
  5
3CA
330
3
100
AcDbSymbolTableRecord
100
AcDbTextStyleTableRecord
  2
CONVERTER_14
 70
     0
 40
0.0
 41
0.855
 50
0.0
 71
     0
 42
0.2
  3
txt.shx
  4

  0
ENDTAB
  0
TABLE
  2
VIEW
  5
6
330
0
100
AcDbSymbolTable
 70
     0
  0
ENDTAB
  0
TABLE
  2
UCS
  5
7
330
0
100
AcDbSymbolTable
 70
     0
  0
ENDTAB
  0
TABLE
  2
APPID
  5
9
330
0
100
AcDbSymbolTable
 70
     1
  0
APPID
  5
12
330
9
100
AcDbSymbolTableRecord
100
AcDbRegAppTableRecord
  2
ACAD
 70
     0
  0
ENDTAB
  0
TABLE
  2
DIMSTYLE
  5
A
330
0
100
AcDbSymbolTable
 70
     7
100
AcDbDimStyleTable
  0
DIMSTYLE
105
27
330
A
100
AcDbSymbolTableRecord
100
AcDbDimStyleTableRecord
  2
Standard
 70
     0
178
     0
340
11
  0
DIMSTYLE
105
F1
102
{ACAD_REACTORS
330
F2
102
}
330
A
100
AcDbSymbolTableRecord
100
AcDbDimStyleTableRecord
  2
ME10_DIM_10
 70
     0
 41
3.5
 42
0.0
 44
1.5
 73
     0
 74
     0
 77
     1
 78
     8
140
3.5
147
1.5
172
     1
173
     1
174
     1
175
     1
176
     2
177
     2
178
     3
340
E4
  0
DIMSTYLE
105
287
102
{ACAD_REACTORS
330
288
102
}
330
A
100
AcDbSymbolTableRecord
100
AcDbDimStyleTableRecord
  2
ME10_DIM_11
 70
     0
 41
3.5
 42
0.0
 44
2.0
 73
     0
 74
     0
 77
     1
 78
     8
140
3.5
147
2.0
172
     1
173
     1
174
     1
175
     1
176
     2
177
     2
271
     1
178
     3
271
     1
340
E4
  0
DIMSTYLE
105
292
102
{ACAD_REACTORS
330
293
102
}
330
A
100
AcDbSymbolTableRecord
100
AcDbDimStyleTableRecord
  2
ME10_DIM_12
 70
     0
 41
3.5
 42
0.0
 44
2.0
 73
     0
 74
     0
 77
     1
 78
     8
140
3.5
147
2.0
172
     1
173
     1
174
     1
175
     1
176
     2
177
     2
271
     1
178
     3
271
     1
340
E4
  0
DIMSTYLE
105
29D
102
{ACAD_REACTORS
330
29E
102
}
330
A
100
AcDbSymbolTableRecord
100
AcDbDimStyleTableRecord
  2
ME10_DIM_13
 70
     0
 41
3.5
 42
0.0
 44
2.0
 73
     0
 74
     0
 77
     1
 78
     8
140
3.5
147
2.0
172
     1
173
     1
174
     1
175
     1
176
     2
177
     2
178
     3
340
E4
  0
DIMSTYLE
105
2A8
102
{ACAD_REACTORS
330
2A9
102
}
330
A
100
AcDbSymbolTableRecord
100
AcDbDimStyleTableRecord
  2
ME10_DIM_14
 70
     0
 41
3.5
 42
0.0
 44
1.5
 73
     0
 74
     0
 77
     1
 78
     8
140
3.5
147
1.5
172
     1
173
     1
174
     1
175
     1
176
     2
177
     2
178
     3
340
E4
  0
DIMSTYLE
105
2B3
102
{ACAD_REACTORS
330
2B4
102
}
330
A
100
AcDbSymbolTableRecord
100
AcDbDimStyleTableRecord
  2
ME10_DIM_15
 70
     0
 41
3.5
 42
0.0
 44
1.5
 73
     0
 74
     0
 77
     1
 78
     8
140
3.5
147
1.5
172
     1
173
     1
174
     1
175
     1
176
     2
177
     2
178
     3
340
E4
  0
ENDTAB
  0
TABLE
  2
BLOCK_RECORD
  5
1
330
0
100
AcDbSymbolTable
 70
    23
  0
BLOCK_RECORD
  5
1F
330
1
100
AcDbSymbolTableRecord
100
AcDbBlockTableRecord
  2
*Model_Space
340
22
  0
BLOCK_RECORD
  5
1B
330
1
100
AcDbSymbolTableRecord
100
AcDbBlockTableRecord
  2
*Paper_Space
340
1E
  0
BLOCK_RECORD
  5
23
330
1
100
AcDbSymbolTableRecord
100
AcDbBlockTableRecord
  2
*Paper_Space0
340
26
  0
BLOCK_RECORD
  5
47
330
1
100
AcDbSymbolTableRecord
100
AcDbBlockTableRecord
  2
STN-2_5-SELECT__1
340
0
102
{BLKREFS
331
4B
102
}
  0
BLOCK_RECORD
  5
4A
330
1
100
AcDbSymbolTableRecord
100
AcDbBlockTableRecord
  2
Drfsicht1
340
0
102
{BLKREFS
331
7D
102
}
  0
BLOCK_RECORD
  5
4E
330
1
100
AcDbSymbolTableRecord
100
AcDbBlockTableRecord
  2
STN-2_5-SELECT__2
340
0
102
{BLKREFS
331
52
102
}
  0
BLOCK_RECORD
  5
51
330
1
100
AcDbSymbolTableRecord
100
AcDbBlockTableRecord
  2
Gen1
340
0
102
{BLKREFS
331
7E
102
}
  0
BLOCK_RECORD
  5
55
330
1
100
AcDbSymbolTableRecord
100
AcDbBlockTableRecord
  2
STN-2_5-SELECT__3
340
0
102
{BLKREFS
331
59
102
}
  0
BLOCK_RECORD
  5
58
330
1
100
AcDbSymbolTableRecord
100
AcDbBlockTableRecord
  2
Rckans1
340
0
102
{BLKREFS
331
7F
102
}
  0
BLOCK_RECORD
  5
5C
330
1
100
AcDbSymbolTableRecord
100
AcDbBlockTableRecord
  2
STN-2_5-SELECT__4
340
0
102
{BLKREFS
331
60
102
}
  0
BLOCK_RECORD
  5
5F
330
1
100
AcDbSymbolTableRecord
100
AcDbBlockTableRecord
  2
SA_Links1
340
0
102
{BLKREFS
331
80
102
}
  0
BLOCK_RECORD
  5
63
330
1
100
AcDbSymbolTableRecord
100
AcDbBlockTableRecord
  2
STN-2_5-SELECT__5
340
0
102
{BLKREFS
331
67
102
}
  0
BLOCK_RECORD
  5
66
330
1
100
AcDbSymbolTableRecord
100
AcDbBlockTableRecord
  2
SA_Rechts1
340
0
102
{BLKREFS
331
81
102
}
  0
BLOCK_RECORD
  5
6A
330
1
100
AcDbSymbolTableRecord
100
AcDbBlockTableRecord
  2
STN-2_5-SELECT__6
340
0
102
{BLKREFS
331
6E
102
}
  0
BLOCK_RECORD
  5
6D
330
1
100
AcDbSymbolTableRecord
100
AcDbBlockTableRecord
  2
Vordans1
340
0
102
{BLKREFS
331
82
102
}
  0
BLOCK_RECORD
  5
71
330
1
100
AcDbSymbolTableRecord
100
AcDbBlockTableRecord
  2
_rahmen
340
0
102
{BLKREFS
331
78
102
}
  0
BLOCK_RECORD
  5
74
330
1
100
AcDbSymbolTableRecord
100
AcDbBlockTableRecord
  2
_punkt
340
0
102
{BLKREFS
331
79
102
}
  0
BLOCK_RECORD
  5
77
330
1
100
AcDbSymbolTableRecord
100
AcDbBlockTableRecord
  2
A4I_CS
340
0
102
{BLKREFS
331
83
102
}
  0
BLOCK_RECORD
  5
7C
330
1
100
AcDbSymbolTableRecord
100
AcDbBlockTableRecord
  2
1
340
0
102
{BLKREFS
331
86
102
}
  0
BLOCK_RECORD
  5
E6
330
1
100
AcDbSymbolTableRecord
100
AcDbBlockTableRecord
  2
*D17
340
0
  0
BLOCK_RECORD
  5
27E
330
1
100
AcDbSymbolTableRecord
100
AcDbBlockTableRecord
  2
*D18
340
0
  0
BLOCK_RECORD
  5
289
330
1
100
AcDbSymbolTableRecord
100
AcDbBlockTableRecord
  2
*D19
340
0
  0
BLOCK_RECORD
  5
294
330
1
100
AcDbSymbolTableRecord
100
AcDbBlockTableRecord
  2
*D20
340
0
  0
BLOCK_RECORD
  5
29F
330
1
100
AcDbSymbolTableRecord
100
AcDbBlockTableRecord
  2
*D21
340
0
  0
BLOCK_RECORD
  5
2AA
330
1
100
AcDbSymbolTableRecord
100
AcDbBlockTableRecord
  2
*D22
340
0
  0
ENDTAB
  0
ENDSEC
  0
SECTION
  2
BLOCKS
  0
BLOCK
  5
20
330
1F
100
AcDbEntity
  8
0
100
AcDbBlockBegin
  2
*Model_Space
 70
     0
 10
0.0
 20
0.0
 30
0.0
  3
*Model_Space
  1

  0
ENDBLK
  5
21
330
1F
100
AcDbEntity
  8
0
100
AcDbBlockEnd
  0
BLOCK
  5
1C
330
1B
100
AcDbEntity
 67
     1
  8
0
100
AcDbBlockBegin
  2
*Paper_Space
 70
     0
 10
0.0
 20
0.0
 30
0.0
  3
*Paper_Space
  1

  0
ENDBLK
  5
1D
330
1B
100
AcDbEntity
 67
     1
  8
0
100
AcDbBlockEnd
  0
BLOCK
  5
24
330
23
100
AcDbEntity
  8
0
100
AcDbBlockBegin
  2
*Paper_Space0
 70
     0
 10
0.0
 20
0.0
 30
0.0
  3
*Paper_Space0
  1

  0
ENDBLK
  5
25
330
23
100
AcDbEntity
  8
0
100
AcDbBlockEnd
  0
BLOCK
  5
48
330
47
100
AcDbEntity
  8
0
100
AcDbBlockBegin
  2
STN-2_5-SELECT__1
 70
     0
 10
-7.74212315536471
 20
384.4249999523163
 30
0.0
  3
STN-2_5-SELECT__1
  1

  0
LINE
  5
87
330
47
100
AcDbEntity
  8
0
  6
Continuous
 62
     2
100
AcDbLine
 10
45.2160160299446
 20
384.643257529388
 30
0.0
 11
45.21601602994485
 21
384.4249999523163
 31
0.0
  0
LINE
  5
88
330
47
100
AcDbEntity
  8
0
  6
Continuous
 62
     7
100
AcDbLine
 10
47.09712681823945
 20
384.4249999523163
 30
0.0
 11
47.09712681823973
 21
384.6432575293881
 31
0.0
  0
LINE
  5
89
330
47
100
AcDbEntity
  8
0
  6
Continuous
 62
     7
100
AcDbLine
 10
51.3715986920204
 20
384.4249999523163
 30
0.0
 11
51.70787684463518
 21
384.4249999523163
 31
0.0
  0
LINE
  5
8A
330
47
100
AcDbEntity
  8
0
  6
Continuous
 62
     7
100
AcDbLine
 10
51.02916721770916
 20
384.4249999523163
 30
0.0
 11
50.06610498205613
 21
384.4249999523163
 31
0.0
  0
LINE
  5
8B
330
47
100
AcDbEntity
  8
0
  6
Continuous
 62
     7
100
AcDbLine
 10
26.81753121960761
 20
384.4249999523163
 30
0.0
 11
25.89247837755289
 21
384.4249999523163
 31
0.0
  0
LINE
  5
8C
330
47
100
AcDbEntity
  8
0
  6
Continuous
 62
     7
100
AcDbLine
 10
6.69965426182698
 20
384.4249999523163
 30
0.0
 11
19.69822246966107
 21
384.4249999523163
 31
0.0
  0
LINE
  5
8D
330
47
100
AcDbEntity
  8
0
  6
Continuous
 62
     7
100
AcDbLine
 10
20.62327531172206
 20
384.4249999523163
 30
0.0
 11
19.69822246966107
 21
384.4249999523163
 31
0.0
  0
LINE
  5
8E
330
47
100
AcDbEntity
  8
0
  6
Continuous
 62
     7
100
AcDbLine
 10
16.90787684465172
 20
385.1749999523156
 30
0.0
 11
6.90787684465145
 21
385.1749999523164
 31
0.0
  0
LINE
  5
8F
330
47
100
AcDbEntity
  8
0
  6
Continuous
 62
     7
100
AcDbLine
 10
20.62327531172206
 20
384.4249999523163
 30
0.0
 11
25.89247837755289
 21
384.4249999523163
 31
0.0
  0
LINE
  5
90
330
47
100
AcDbEntity
  8
0
  6
Continuous
 62
     7
100
AcDbLine
 10
35.38966427969515
 20
384.4249999523163
 30
0.0
 11
29.34280992971628
 21
384.4249999523163
 31
0.0
  0
LINE
  5
91
330
47
100
AcDbEntity
  8
0
  6
Continuous
 62
     7
100
AcDbLine
 10
38.94529333292108
 20
385.1249999523153
 30
0.0
 11
40.95918037946051
 21
385.1249999523151
 31
0.0
  0
LINE
  5
92
330
47
100
AcDbEntity
  8
0
  6
Continuous
 62
     7
100
AcDbLine
 10
6.90787684465145
 20
385.1749999523164
 30
0.0
 11
6.90787684465161
 21
388.9249999523168
 31
0.0
  0
LINE
  5
93
330
47
100
AcDbEntity
  8
0
  6
Continuous
 62
     7
100
AcDbLine
 10
51.37159869202037
 20
389.5749999523146
 30
0.0
 11
51.70787684463518
 21
389.5749999523146
 31
0.0
  0
LINE
  5
94
330
47
100
AcDbEntity
  8
0
  6
Continuous
 62
     7
100
AcDbLine
 10
6.69965426182718
 20
389.5749999523169
 30
0.0
 11
19.69822246966102
 21
389.5749999523164
 31
0.0
  0
LINE
  5
95
330
47
100
AcDbEntity
  8
0
  6
Continuous
 62
     7
100
AcDbLine
 10
28.77490382124859
 20
389.574999952316
 30
0.0
 11
29.2490752891158
 21
389.574999952316
 31
0.0
  0
LINE
  5
96
330
47
100
AcDbEntity
  8
0
  6
Continuous
 62
     7
100
AcDbLine
 10
51.02916721770914
 20
389.5749999523147
 30
0.0
 11
50.06610498205613
 21
389.5749999523147
 31
0.0
  0
LINE
  5
97
330
47
100
AcDbEntity
  8
0
  6
Continuous
 62
     7
100
AcDbLine
 10
26.8175312196076
 20
389.5749999523161
 30
0.0
 11
25.89247837755289
 21
389.574999952316
 31
0.0
  0
LINE
  5
98
330
47
100
AcDbEntity
  8
0
  6
Continuous
 62
     7
100
AcDbLine
 10
-7.74212315536471
 20
389.5749999523168
 30
0.0
 11
-6.7421231553635
 21
389.5749999523175
 31
0.0
  0
LINE
  5
99
330
47
100
AcDbEntity
  8
0
  6
Continuous
 62
     7
100
AcDbLine
 10
-6.7421231553635
 20
389.5749999523175
 30
0.0
 11
3.05787684463595
 21
389.5749999523171
 31
0.0
  0
LINE
  5
9A
330
47
100
AcDbEntity
  8
0
  6
Continuous
 62
     7
100
AcDbLine
 10
20.62327531172206
 20
389.5749999523163
 30
0.0
 11
25.89247837755289
 21
389.574999952316
 31
0.0
  0
LINE
  5
9B
330
47
100
AcDbEntity
  8
0
  6
Continuous
 62
     7
100
AcDbLine
 10
3.05787684463595
 20
389.5749999523171
 30
0.0
 11
6.69965426182718
 21
389.5749999523169
 31
0.0
  0
LINE
  5
9C
330
47
100
AcDbEntity
  8
0
  6
Continuous
 62
     7
100
AcDbLine
 10
3.05787684463609
 20
384.4249999523163
 30
0.0
 11
6.69965426182698
 21
384.4249999523163
 31
0.0
  0
LINE
  5
9D
330
47
100
AcDbEntity
  8
0
  6
Continuous
 62
     7
100
AcDbLine
 10
-6.7421231553635
 20
384.4249999523163
 30
0.0
 11
3.05787684463609
 21
384.4249999523163
 31
0.0
  0
LINE
  5
9E
330
47
100
AcDbEntity
  8
0
  6
Continuous
 62
     7
100
AcDbLine
 10
6.69965426182698
 20
384.4249999523163
 30
0.0
 11
6.69965426182718
 21
389.5749999523169
 31
0.0
  0
LINE
  5
9F
330
47
100
AcDbEntity
  8
0
  6
Continuous
 62
     7
100
AcDbLine
 10
-7.74212315536471
 20
384.4249999523163
 30
0.0
 11
-6.7421231553635
 21
384.4249999523163
 31
0.0
  0
LINE
  5
A0
330
47
100
AcDbEntity
  8
0
  6
Continuous
 62
     7
100
AcDbLine
 10
-6.7421231553635
 20
389.5749999523175
 30
0.0
 11
-6.7421231553635
 21
384.4249999523163
 31
0.0
  0
LINE
  5
A1
330
47
100
AcDbEntity
  8
0
  6
Continuous
 62
     7
100
AcDbLine
 10
-7.74212315536471
 20
389.5749999523168
 30
0.0
 11
-7.74212315536471
 21
384.4249999523163
 31
0.0
  0
LINE
  5
A2
330
47
100
AcDbEntity
  8
0
  6
Continuous
 62
     7
100
AcDbLine
 10
3.05787684463595
 20
389.5749999523171
 30
0.0
 11
3.05787684463609
 21
384.4249999523163
 31
0.0
  0
LINE
  5
A3
330
47
100
AcDbEntity
  8
0
  6
Continuous
 62
     7
100
AcDbLine
 10
51.02916721770914
 20
389.5749999523147
 30
0.0
 11
51.37159869202037
 21
389.5749999523146
 31
0.0
  0
LINE
  5
A4
330
47
100
AcDbEntity
  8
0
  6
Continuous
 62
     7
100
AcDbLine
 10
51.02916721770916
 20
384.4249999523163
 30
0.0
 11
51.3715986920204
 21
384.4249999523163
 31
0.0
  0
LINE
  5
A5
330
47
100
AcDbEntity
  8
0
  6
Continuous
 62
     7
100
AcDbLine
 10
51.70787684463518
 20
384.4249999523163
 30
0.0
 11
51.70787684463518
 21
389.5749999523146
 31
0.0
  0
LINE
  5
A6
330
47
100
AcDbEntity
  8
0
  6
Continuous
 62
     7
100
AcDbLine
 10
51.02916721770916
 20
384.4249999523163
 30
0.0
 11
51.02916721770914
 21
389.5749999523147
 31
0.0
  0
LINE
  5
A7
330
47
100
AcDbEntity
  8
0
  6
Continuous
 62
     7
100
AcDbLine
 10
51.37159869202037
 20
389.5749999523146
 30
0.0
 11
51.3715986920204
 21
384.4249999523163
 31
0.0
  0
LINE
  5
A8
330
47
100
AcDbEntity
  8
0
  6
Continuous
 62
     7
100
AcDbLine
 10
50.06610498205613
 20
384.4249999523163
 30
0.0
 11
50.06610498205613
 21
389.5749999523147
 31
0.0
  0
LINE
  5
A9
330
47
100
AcDbEntity
  8
0
  6
Continuous
 62
     7
100
AcDbLine
 10
50.06610498205613
 20
384.4249999523163
 30
0.0
 11
49.96583674228026
 21
384.4249999523163
 31
0.0
  0
LINE
  5
AA
330
47
100
AcDbEntity
  8
0
  6
Continuous
 62
     7
100
AcDbLine
 10
50.06610498205613
 20
389.5749999523147
 30
0.0
 11
49.96583674228026
 21
389.5749999523148
 31
0.0
  0
LINE
  5
AB
330
47
100
AcDbEntity
  8
0
  6
Continuous
 62
     7
100
AcDbLine
 10
38.11695402389118
 20
389.5749999523155
 30
0.0
 11
49.70787684463571
 21
389.5749999523149
 31
0.0
  0
LINE
  5
AC
330
47
100
AcDbEntity
  8
0
  6
Continuous
 62
     7
100
AcDbLine
 10
49.70787684463571
 20
389.5749999523149
 30
0.0
 11
49.70787684463569
 21
384.4249999523163
 31
0.0
  0
LINE
  5
AD
330
47
100
AcDbEntity
  8
0
  6
Continuous
 62
     7
100
AcDbLine
 10
38.11695402389118
 20
384.4249999523163
 30
0.0
 11
38.11695402389118
 21
389.5749999523155
 31
0.0
  0
LINE
  5
AE
330
47
100
AcDbEntity
  8
0
  6
Continuous
 62
     7
100
AcDbLine
 10
36.86035089599483
 20
389.5749999523155
 30
0.0
 11
36.86035089599491
 21
384.4249999523163
 31
0.0
  0
LINE
  5
AF
330
47
100
AcDbEntity
  8
0
  6
Continuous
 62
     7
100
AcDbLine
 10
45.21601602994485
 20
384.4249999523163
 30
0.0
 11
44.65392600419619
 21
384.4249999523163
 31
0.0
  0
LINE
  5
B0
330
47
100
AcDbEntity
  8
0
  6
Continuous
 62
     7
100
AcDbLine
 10
49.70787684463569
 20
384.4249999523163
 30
0.0
 11
47.09712681823945
 21
384.4249999523163
 31
0.0
  0
LINE
  5
B1
330
47
100
AcDbEntity
  8
0
  6
Continuous
 62
     7
100
AcDbLine
 10
44.65392600419625
 20
384.6432575293879
 30
0.0
 11
44.65392600419619
 21
384.4249999523163
 31
0.0
  0
LINE
  5
B2
330
47
100
AcDbEntity
  8
0
  6
Continuous
 62
     7
100
AcDbLine
 10
49.70787684463569
 20
384.4249999523163
 30
0.0
 11
49.96583674228026
 21
384.4249999523163
 31
0.0
  0
LINE
  5
B3
330
47
100
AcDbEntity
  8
0
  6
Continuous
 62
     7
100
AcDbLine
 10
45.21601602994485
 20
384.4249999523163
 30
0.0
 11
47.09712681823945
 21
384.4249999523163
 31
0.0
  0
LINE
  5
B4
330
47
100
AcDbEntity
  8
0
  6
Continuous
 62
     7
100
AcDbLine
 10
45.2160160299446
 20
384.643257529388
 30
0.0
 11
47.09712681823973
 21
384.6432575293881
 31
0.0
  0
LINE
  5
B5
330
47
100
AcDbEntity
  8
0
  6
Continuous
 62
     7
100
AcDbLine
 10
46.15743419745348
 20
389.224999952315
 30
0.0
 11
45.59361862498221
 21
389.224999952315
 31
0.0
  0
LINE
  5
B6
330
47
100
AcDbEntity
  8
0
  6
Continuous
 62
     7
100
AcDbLine
 10
49.70787684463571
 20
389.5749999523149
 30
0.0
 11
49.96583674228026
 21
389.5749999523148
 31
0.0
  0
LINE
  5
B7
330
47
100
AcDbEntity
  8
0
  6
Continuous
 62
     7
100
AcDbLine
 10
49.96583674228026
 20
389.5749999523148
 30
0.0
 11
49.96583674228026
 21
384.4249999523163
 31
0.0
  0
LINE
  5
B8
330
47
100
AcDbEntity
  8
0
  6
Continuous
 62
     7
100
AcDbLine
 10
35.38966427969515
 20
384.4249999523163
 30
0.0
 11
36.86035089599491
 21
384.4249999523163
 31
0.0
  0
LINE
  5
B9
330
47
100
AcDbEntity
  8
0
  6
Continuous
 62
     7
100
AcDbLine
 10
35.38966427969515
 20
384.4249999523163
 30
0.0
 11
35.38966427969181
 21
384.9999999523154
 31
0.0
  0
LINE
  5
BA
330
47
100
AcDbEntity
  8
0
  6
Continuous
 62
     7
100
AcDbLine
 10
44.65392600419619
 20
384.4249999523163
 30
0.0
 11
38.11695402389118
 21
384.4249999523163
 31
0.0
  0
LINE
  5
BB
330
47
100
AcDbEntity
  8
0
  6
Continuous
 62
     7
100
AcDbLine
 10
36.86035089599491
 20
384.4249999523163
 30
0.0
 11
38.11695402389118
 21
384.4249999523163
 31
0.0
  0
LINE
  5
BC
330
47
100
AcDbEntity
  8
0
  6
Continuous
 62
     2
100
AcDbLine
 10
44.58660293407677
 20
387.2749999523148
 30
0.0
 11
43.3783543074985
 21
387.2749999523147
 31
0.0
  0
LINE
  5
BD
330
47
100
AcDbEntity
  8
0
  6
Continuous
 62
     7
100
AcDbLine
 10
40.95918037946068
 20
388.9249999523151
 30
0.0
 11
42.51612550777851
 21
388.9249999523152
 31
0.0
  0
LINE
  5
BE
330
47
100
AcDbEntity
  8
0
  6
Continuous
 62
     7
100
AcDbLine
 10
38.94529333292127
 20
388.9249999523154
 30
0.0
 11
40.95918037946068
 21
388.9249999523151
 31
0.0
  0
LINE
  5
BF
330
47
100
AcDbEntity
  8
0
  6
Continuous
 62
     7
100
AcDbLine
 10
40.95918037946051
 20
385.1249999523151
 30
0.0
 11
42.51612550777836
 21
385.1249999523151
 31
0.0
  0
LINE
  5
C0
330
47
100
AcDbEntity
  8
0
  6
Continuous
 62
     2
100
AcDbLine
 10
44.58660293407692
 20
386.3749999523147
 30
0.0
 11
43.37835430749858
 21
386.3749999523147
 31
0.0
  0
LINE
  5
C1
330
47
100
AcDbEntity
  8
0
  6
Continuous
 62
     7
100
AcDbLine
 10
40.95918037946068
 20
388.9249999523151
 30
0.0
 11
40.95918037946051
 21
385.1249999523151
 31
0.0
  0
LINE
  5
C2
330
47
100
AcDbEntity
  8
0
  6
Continuous
 62
     7
100
AcDbLine
 10
42.51612550777836
 20
385.1249999523151
 30
0.0
 11
42.51612550777851
 21
388.9249999523152
 31
0.0
  0
LINE
  5
C3
330
47
100
AcDbEntity
  8
0
  6
Continuous
 62
     7
100
AcDbLine
 10
30.83215506891644
 20
388.9999999523156
 30
0.0
 11
30.83215506891628
 21
384.9999999523156
 31
0.0
  0
LINE
  5
C4
330
47
100
AcDbEntity
  8
0
  6
Continuous
 62
     7
100
AcDbLine
 10
20.62327531172206
 20
389.5749999523163
 30
0.0
 11
19.69822246966102
 21
389.5749999523164
 31
0.0
  0
LINE
  5
C5
330
47
100
AcDbEntity
  8
0
  6
Continuous
 62
     7
100
AcDbLine
 10
6.90787684465161
 20
388.9249999523168
 30
0.0
 11
16.90787684465187
 21
388.9249999523164
 31
0.0
  0
LINE
  5
C6
330
47
100
AcDbEntity
  8
0
  6
Continuous
 62
     7
100
AcDbLine
 10
29.2490752891158
 20
384.4249999523163
 30
0.0
 11
29.34280992971628
 21
384.4249999523163
 31
0.0
  0
LINE
  5
C7
330
47
100
AcDbEntity
  8
0
  6
Continuous
 62
     7
100
AcDbLine
 10
28.77490382125234
 20
384.4249999523163
 30
0.0
 11
29.2490752891158
 21
384.4249999523163
 31
0.0
  0
LINE
  5
C8
330
47
100
AcDbEntity
  8
0
  6
Continuous
 62
     7
100
AcDbLine
 10
29.34280992971628
 20
389.5749999523159
 30
0.0
 11
29.34280992971628
 21
384.4249999523163
 31
0.0
  0
LINE
  5
C9
330
47
100
AcDbEntity
  8
0
  6
Continuous
 62
     7
100
AcDbLine
 10
26.81753121960761
 20
384.4249999523163
 30
0.0
 11
28.77490382125234
 21
384.4249999523163
 31
0.0
  0
LINE
  5
CA
330
47
100
AcDbEntity
  8
0
  6
Continuous
 62
     7
100
AcDbLine
 10
25.89247837755289
 20
389.574999952316
 30
0.0
 11
25.89247837755289
 21
384.4249999523163
 31
0.0
  0
LINE
  5
CB
330
47
100
AcDbEntity
  8
0
  6
Continuous
 62
     7
100
AcDbLine
 10
20.62327531172206
 20
384.4249999523163
 30
0.0
 11
20.62327531172206
 21
389.5749999523163
 31
0.0
  0
LINE
  5
CC
330
47
100
AcDbEntity
  8
0
  6
Continuous
 62
     7
100
AcDbLine
 10
26.8175312196076
 20
389.5749999523161
 30
0.0
 11
26.81753121960761
 21
384.4249999523163
 31
0.0
  0
LINE
  5
CD
330
47
100
AcDbEntity
  8
0
  6
Continuous
 62
     7
100
AcDbLine
 10
29.2490752891158
 20
384.4249999523163
 30
0.0
 11
29.2490752891158
 21
389.574999952316
 31
0.0
  0
LINE
  5
CE
330
47
100
AcDbEntity
  8
0
  6
Continuous
 62
     7
100
AcDbLine
 10
28.77490382124859
 20
389.574999952316
 30
0.0
 11
28.77490382125234
 21
384.4249999523163
 31
0.0
  0
LINE
  5
CF
330
47
100
AcDbEntity
  8
0
  6
Continuous
 62
     7
100
AcDbLine
 10
35.38966427969514
 20
389.5749999523155
 30
0.0
 11
36.86035089599483
 21
389.5749999523155
 31
0.0
  0
LINE
  5
D0
330
47
100
AcDbEntity
  8
0
  6
Continuous
 62
     7
100
AcDbLine
 10
36.86035089599483
 20
389.5749999523155
 30
0.0
 11
38.11695402389118
 21
389.5749999523155
 31
0.0
  0
LINE
  5
D1
330
47
100
AcDbEntity
  8
0
  6
Continuous
 62
     7
100
AcDbLine
 10
38.94529333292127
 20
388.9249999523154
 30
0.0
 11
38.94529333292108
 21
385.1249999523153
 31
0.0
  0
LINE
  5
D2
330
47
100
AcDbEntity
  8
0
  6
Continuous
 62
     7
100
AcDbLine
 10
32.4296325242161
 20
384.9999999523155
 30
0.0
 11
32.4296325242163
 21
388.9999999523155
 31
0.0
  0
LINE
  5
D3
330
47
100
AcDbEntity
  8
0
  6
Continuous
 62
     7
100
AcDbLine
 10
32.4296325242163
 20
388.9999999523155
 30
0.0
 11
35.3896642796918
 21
388.9999999523154
 31
0.0
  0
LINE
  5
D4
330
47
100
AcDbEntity
  8
0
  6
Continuous
 62
     7
100
AcDbLine
 10
29.34280992971626
 20
388.9999999523161
 30
0.0
 11
30.83215506891644
 21
388.9999999523156
 31
0.0
  0
LINE
  5
D5
330
47
100
AcDbEntity
  8
0
  6
Continuous
 62
     7
100
AcDbLine
 10
35.38966427969181
 20
384.9999999523154
 30
0.0
 11
32.4296325242161
 21
384.9999999523155
 31
0.0
  0
LINE
  5
D6
330
47
100
AcDbEntity
  8
0
  6
Continuous
 62
     7
100
AcDbLine
 10
30.83215506891628
 20
384.9999999523156
 30
0.0
 11
29.34280992971626
 21
384.9999999523161
 31
0.0
  0
LINE
  5
D7
330
47
100
AcDbEntity
  8
0
  6
Continuous
 62
     7
100
AcDbLine
 10
35.3896642796918
 20
388.9999999523154
 30
0.0
 11
35.38966427969514
 21
389.5749999523155
 31
0.0
  0
LINE
  5
D8
330
47
100
AcDbEntity
  8
0
  6
Continuous
 62
     7
100
AcDbLine
 10
26.8175312196076
 20
389.5749999523161
 30
0.0
 11
28.77490382124859
 21
389.574999952316
 31
0.0
  0
LINE
  5
D9
330
47
100
AcDbEntity
  8
0
  6
Continuous
 62
     7
100
AcDbLine
 10
29.2490752891158
 20
389.574999952316
 30
0.0
 11
29.34280992971628
 21
389.5749999523159
 31
0.0
  0
LINE
  5
DA
330
47
100
AcDbEntity
  8
0
  6
Continuous
 62
     7
100
AcDbLine
 10
35.38966427969514
 20
389.5749999523155
 30
0.0
 11
29.34280992971628
 21
389.5749999523159
 31
0.0
  0
LINE
  5
DB
330
47
100
AcDbEntity
  8
0
  6
Continuous
 62
     7
100
AcDbLine
 10
19.69822246966102
 20
389.5749999523164
 30
0.0
 11
19.69822246966107
 21
384.4249999523163
 31
0.0
  0
LINE
  5
DC
330
47
100
AcDbEntity
  8
0
  6
Continuous
 62
     7
100
AcDbLine
 10
16.90787684465187
 20
388.9249999523164
 30
0.0
 11
16.90787684465172
 21
385.1749999523156
 31
0.0
  0
SPLINE
  5
DD
330
47
100
AcDbEntity
  8
0
  6
Continuous
 62
     7
100
AcDbSpline
210
0.0
220
0.0
230
1.0
 70
     8
 71
     3
 72
    15
 73
    11
 74
     9
 42
0.000000001
 43
0.0000000001
 44
0.00000001
 40
0.0
 40
0.0
 40
0.0
 40
0.0
 40
0.0230962703707762
 40
0.0459111547439446
 40
0.2177159991044325
 40
0.3683663336093809
 40
0.4321435256667789
 40
0.489505104806004
 40
0.5354478544204172
 40
0.5760344478330731
 40
0.5760344478330731
 40
0.5760344478330731
 40
0.5760344478330731
 10
44.65392600419619
 20
384.5208628749285
 30
0.0
 10
44.66142164200004
 20
384.5226196769901
 30
0.0
 10
44.67632159365093
 20
384.5261118915383
 30
0.0
 10
44.74690595897669
 20
384.5429816809443
 30
0.0
 10
44.85847756537651
 20
384.5712385052412
 30
0.0
 10
44.98320903703624
 20
384.6031316148545
 30
0.0
 10
45.07153404517928
 20
384.623373700881
 30
0.0
 10
45.12619594334401
 20
384.6340025753284
 30
0.0
 10
45.17365360876512
 20
384.6414281593879
 30
0.0
 10
45.20249021653155
 20
384.6426734402724
 30
0.0
 10
45.2160160299446
 20
384.643257529388
 30
0.0
 11
44.65392600419619
 21
384.5208628749285
 31
0.0
 11
44.67640902370463
 21
384.5261497918876
 31
0.0
 11
44.69860000404339
 21
384.5314487855635
 31
0.0
 11
44.8652952920623
 21
384.5730370698971
 31
0.0
 11
45.01147929513849
 21
384.6094480632784
 31
0.0
 11
45.0736921927134
 21
384.6234867801051
 31
0.0
 11
45.13001641417623
 21
384.6343464657393
 31
0.0
 11
45.17550409861296
 21
384.6407967992
 31
0.0
 11
45.2160160299446
 21
384.643257529388
 31
0.0
  0
SPLINE
  5
DE
330
47
100
AcDbEntity
  8
0
  6
Continuous
 62
     7
100
AcDbSpline
210
0.0
220
0.0
230
1.0
 70
     8
 71
     3
 72
    21
 73
    17
 74
    15
 42
0.000000001
 43
0.0000000001
 44
0.00000001
 40
0.0
 40
0.0
 40
0.0
 40
0.0
 40
0.0918627166025509
 40
0.1821852290873048
 40
0.2665250812086292
 40
0.3656286008497407
 40
0.4673138013210295
 40
0.5519597833744816
 40
0.6381049736371858
 40
0.7416342974220979
 40
0.8297939855477707
 40
0.9365485749218035
 40
1.043983259075287
 40
1.135097138198815
 40
1.288013898373445
 40
1.445803022337991
 40
1.445803022337991
 40
1.445803022337991
 40
1.445803022337991
 10
44.58660293407692
 20
386.3749999523147
 30
0.0
 10
44.59148802428791
 20
386.3447453733255
 30
0.0
 10
44.60117628547222
 20
386.2847434728105
 30
0.0
 10
44.60408886635879
 20
386.195715406681
 30
0.0
 10
44.59846897445072
 20
386.1045207307129
 30
0.0
 10
44.58206891330142
 20
386.0106524748909
 30
0.0
 10
44.55419767494926
 20
385.9194107793045
 30
0.0
 10
44.51758161097383
 20
385.8361055455548
 30
0.0
 10
44.47184394319058
 20
385.7567215401751
 30
0.0
 10
44.41610928681088
 20
385.6824057432296
 30
0.0
 10
44.34715922580101
 20
385.6104349636078
 30
0.0
 10
44.26900065442406
 20
385.5463597687242
 30
0.0
 10
44.18251739434984
 20
385.4921611330813
 30
0.0
 10
44.0766854188911
 20
385.4416577449527
 30
0.0
 10
43.94880435728872
 20
385.398930491155
 30
0.0
 10
43.84588197586054
 20
385.3857475355575
 30
0.0
 10
43.79361379042808
 20
385.3790527001292
 30
0.0
 11
44.58660293407692
 21
386.3749999523147
 31
0.0
 11
44.5993011899045
 21
386.284019110839
 31
0.0
 11
44.60268499912097
 21
386.1937600038113
 31
0.0
 11
44.59733772590826
 21
386.1095898338851
 31
0.0
 11
44.58025462948443
 21
386.0119697764154
 31
0.0
 11
44.55049524710472
 21
385.914736760749
 31
0.0
 11
44.51642602940208
 21
385.8372497889566
 31
0.0
 11
44.47341713354729
 21
385.7626091244587
 31
0.0
 11
44.4113246899948
 21
385.679766807385
 31
0.0
 11
44.35035980101434
 21
385.616084682452
 31
0.0
 11
44.2678587438957
 21
385.5483342721642
 31
0.0
 11
44.17685674554716
 21
385.4912304384315
 31
0.0
 11
44.09471224989531
 21
385.4518093662886
 31
0.0
 11
43.9493767450591
 21
385.4042580572236
 31
0.0
 11
43.79361379042808
 21
385.3790527001292
 31
0.0
  0
SPLINE
  5
DF
330
47
100
AcDbEntity
  8
0
  6
Continuous
 62
     7
100
AcDbSpline
210
0.0
220
0.0
230
1.0
 70
     8
 71
     3
 72
    15
 73
    11
 74
     9
 42
0.000000001
 43
0.0000000001
 44
0.00000001
 40
0.0
 40
0.0
 40
0.0
 40
0.0
 40
0.1108463363641522
 40
0.2188475812503524
 40
0.3364192134844001
 40
0.4527836739340824
 40
0.5691481385775353
 40
0.6867197750572057
 40
0.7947210196389588
 40
0.9055673556825274
 40
0.9055673556825274
 40
0.9055673556825274
 40
0.9055673556825274
 10
44.58660293407677
 20
387.2749999523148
 30
0.0
 10
44.58010552561552
 20
387.2386213004289
 30
0.0
 10
44.56727749188614
 20
387.1667977246241
 30
0.0
 10
44.55351166025732
 20
387.0554541027874
 30
0.0
 10
44.54458848849424
 20
386.941782252066
 30
0.0
 10
44.54156598327098
 20
386.8249999548272
 30
0.0
 10
44.54458848823231
 20
386.7082176561606
 30
0.0
 10
44.55351166013807
 20
386.5945458027257
 30
0.0
 10
44.56727749193823
 20
386.4832021796943
 30
0.0
 10
44.58010552563329
 20
386.4113786040953
 30
0.0
 10
44.58660293407692
 20
386.3749999523147
 30
0.0
 11
44.58660293407677
 21
387.2749999523148
 31
0.0
 11
44.56810432222248
 21
387.1657080875025
 31
0.0
 11
44.55466973587829
 21
387.0585456832557
 31
0.0
 11
44.54558912258158
 21
386.9413252444328
 31
0.0
 11
44.54257000301378
 21
386.8249999562232
 31
0.0
 11
44.54558912239419
 21
386.7086746638136
 31
0.0
 11
44.55466973594226
 21
386.5914542207518
 31
0.0
 11
44.56810432226931
 21
386.4842918168097
 31
0.0
 11
44.58660293407692
 21
386.3749999523147
 31
0.0
  0
SPLINE
  5
E0
330
47
100
AcDbEntity
  8
0
  6
Continuous
 62
     7
100
AcDbSpline
210
0.0
220
0.0
230
1.0
 70
     8
 71
     3
 72
    19
 73
    15
 74
    13
 42
0.000000001
 43
0.0000000001
 44
0.00000001
 40
0.0
 40
0.0
 40
0.0
 40
0.0
 40
0.0527485534224991
 40
0.1088365447254136
 40
0.21928611360036
 40
0.3108441776798892
 40
0.4114304377493133
 40
0.5102278925382686
 40
0.6165237573510048
 40
0.7043685145550755
 40
0.8918865974873569
 40
1.079940392917698
 40
1.259679976451478
 40
1.444850790887821
 40
1.444850790887821
 40
1.444850790887821
 40
1.444850790887821
 10
43.79361375438201
 20
388.270947153684
 30
0.0
 10
43.81111304535417
 20
388.2691952258549
 30
0.0
 10
43.84721948157064
 20
388.2655804435477
 30
0.0
 10
43.9193752905603
 20
388.2536387063854
 30
0.0
 10
44.00308656949818
 20
388.2330029428691
 30
0.0
 10
44.09806163250587
 20
388.1985913450286
 30
0.0
 10
44.18550369474699
 20
388.1561683083053
 30
0.0
 10
44.27171740180014
 20
388.1014580915736
 30
0.0
 10
44.34741375192464
 20
388.0393037980597
 30
0.0
 10
44.43553847183376
 20
387.9473030184333
 30
0.0
 10
44.52257414884625
 20
387.8176157821148
 30
0.0
 10
44.58606302604407
 20
387.6422035627647
 30
0.0
 10
44.61069709475159
 20
387.4574428547277
 30
0.0
 10
44.59471362370032
 20
387.3364147031552
 30
0.0
 10
44.58660293407677
 20
387.2749999523148
 30
0.0
 11
43.79361375438201
 21
388.270947153684
 31
0.0
 11
43.84604259031447
 21
388.2651482521619
 31
0.0
 11
43.90139878216155
 21
388.2561174759653
 31
0.0
 11
44.00858146518082
 21
388.2294532675351
 31
0.0
 11
44.09464677405279
 21
388.1982180015185
 31
0.0
 11
44.18510210441462
 21
388.1542244898148
 31
0.0
 11
44.26847768287256
 21
388.1012202434996
 31
0.0
 11
44.35058085210688
 21
388.0337081657724
 31
0.0
 11
44.41131654179716
 21
387.9702426044214
 31
0.0
 11
44.51559369375573
 21
387.8143923314822
 31
0.0
 11
44.58030397909735
 21
387.6378227712879
 31
0.0
 11
44.60263331067753
 21
387.4594755830304
 31
0.0
 11
44.58660293407677
 21
387.2749999523148
 31
0.0
  0
SPLINE
  5
E1
330
47
100
AcDbEntity
  8
0
  6
Continuous
 62
     7
100
AcDbSpline
210
0.0
220
0.0
230
1.0
 70
     8
 71
     3
 72
    17
 73
    13
 74
    11
 42
0.000000001
 43
0.0000000001
 44
0.00000001
 40
0.0
 40
0.0
 40
0.0
 40
0.0
 40
0.5556890826267025
 40
1.119199208886566
 40
1.691190185737649
 40
2.270354965063361
 40
2.853784694625151
 40
3.437643528396023
 40
4.018003392845876
 40
4.591693822985133
 40
5.157023299185727
 40
5.714222845849582
 40
5.714222845849582
 40
5.714222845849582
 40
5.714222845849582
 10
44.65392600419619
 20
384.550458158956
 30
0.0
 10
44.82404352473754
 20
384.6261996676976
 30
0.0
 10
45.16667287772131
 20
384.7787487212052
 30
0.0
 10
45.59068838971855
 20
385.1635489190335
 30
0.0
 10
45.91956853444601
 20
385.6360555259334
 30
0.0
 10
46.12995179648829
 20
386.1807370797788
 30
0.0
 10
46.21121387505711
 20
386.7622553524569
 30
0.0
 10
46.15834612953385
 20
387.3474284496139
 30
0.0
 10
45.97479552417497
 20
387.9028551635755
 30
0.0
 10
45.66947195501651
 20
388.3927161420974
 30
0.0
 10
45.26501614198997
 20
388.8002752449379
 30
0.0
 10
44.93017097327024
 20
388.9716382966192
 30
0.0
 10
44.76396094540701
 20
389.0566992669777
 30
0.0
 11
44.65392600419619
 21
384.550458158956
 31
0.0
 11
45.14898864122284
 21
384.8028533764885
 31
0.0
 11
45.57208618775718
 21
385.1750524249277
 31
0.0
 11
45.89815075103945
 21
385.6450051674911
 31
0.0
 11
46.10786546369425
 21
386.1848677263663
 31
0.0
 11
46.18880412091517
 21
386.7626559094059
 31
0.0
 11
46.13617291606469
 21
387.3441377194376
 31
0.0
 11
45.95308853696623
 21
387.8948624092257
 31
0.0
 11
45.65039947037823
 21
388.3822021681619
 31
0.0
 11
45.24603762893985
 21
388.7772830724552
 31
0.0
 11
44.76396094540701
 21
389.0566992669777
 31
0.0
  0
SPLINE
  5
E2
330
47
100
AcDbEntity
  8
0
  6
Continuous
 62
     7
100
AcDbSpline
210
0.0
220
0.0
230
1.0
 70
     8
 71
     3
 72
    17
 73
    13
 74
    11
 42
0.000000001
 43
0.0000000001
 44
0.00000001
 40
0.0
 40
0.0
 40
0.0
 40
0.0
 40
0.621196211435301
 40
1.252772696406616
 40
1.893999226342077
 40
2.541461086979882
 40
3.190066505835448
 40
3.834420761570904
 40
4.470262382123801
 40
5.095661186855588
 40
5.711664102207694
 40
6.322115156105699
 40
6.322115156105699
 40
6.322115156105699
 40
6.322115156105699
 10
47.09712681823973
 20
384.6432575293881
 30
0.0
 10
47.27624810564359
 20
384.749756001174
 30
0.0
 10
47.6374838138217
 20
384.9645325602066
 30
0.0
 10
48.04510268018272
 20
385.4620680238668
 30
0.0
 10
48.32029268709815
 20
386.0460696244851
 30
0.0
 10
48.43669101600413
 20
386.6890313261758
 30
0.0
 10
48.38830833959139
 20
387.3409133956312
 30
0.0
 10
48.17792428776141
 20
387.9558651169178
 30
0.0
 10
47.82016486438031
 20
388.4905059247691
 30
0.0
 10
47.33999923507265
 20
388.9011618489461
 30
0.0
 10
46.7718051006218
 20
389.1732018337278
 30
0.0
 10
46.36160554101157
 20
389.207786102089
 30
0.0
 10
46.15743419745348
 20
389.224999952315
 30
0.0
 11
47.09712681823973
 21
384.6432575293881
 31
0.0
 11
47.61196392216821
 21
384.9908600240811
 31
0.0
 11
48.02049043277677
 21
385.4725185649925
 31
0.0
 11
48.29284505919419
 21
386.0530307719142
 31
0.0
 11
48.40912395072897
 21
386.6899656838508
 31
0.0
 11
48.36082550396125
 21
387.3367703304838
 31
0.0
 11
48.15148267760426
 21
387.9461700264843
 31
0.0
 11
47.79639366626244
 21
388.4736227374159
 31
0.0
 11
47.3215142164058
 21
388.880578724584
 31
0.0
 11
46.76155146818995
 21
389.1372912412566
 31
0.0
 11
46.15743419745348
 21
389.224999952315
 31
0.0
  0
SPLINE
  5
E3
330
47
100
AcDbEntity
  8
0
  6
Continuous
 62
     7
100
AcDbSpline
210
0.0
220
0.0
230
1.0
 70
     8
 71
     3
 72
    17
 73
    13
 74
    11
 42
0.000000001
 43
0.0000000001
 44
0.00000001
 40
0.0
 40
0.0
 40
0.0
 40
0.0
 40
0.6211962114353728
 40
1.252772696406707
 40
1.893999226342276
 40
2.541461086980267
 40
3.190066505835886
 40
3.834420761571445
 40
4.470262382124464
 40
5.095661186856321
 40
5.711664102208517
 40
6.322115156106613
 40
6.322115156106613
 40
6.322115156106613
 40
6.322115156106613
 10
44.65392600419625
 20
384.6432575293879
 30
0.0
 10
44.47480471679233
 20
384.7497560011736
 30
0.0
 10
44.11356900861416
 20
384.9645325602061
 30
0.0
 10
43.70595014225288
 20
385.4620680238664
 30
0.0
 10
43.43076013533736
 20
386.0460696244846
 30
0.0
 10
43.31436180643128
 20
386.6890313261757
 30
0.0
 10
43.36274448284398
 20
387.3409133956309
 30
0.0
 10
43.57312853467394
 20
387.9558651169177
 30
0.0
 10
43.93088795805505
 20
388.4905059247693
 30
0.0
 10
44.41105358736285
 20
388.9011618489461
 30
0.0
 10
44.97924772181379
 20
389.1732018337278
 30
0.0
 10
45.38944728142409
 20
389.2077861020891
 30
0.0
 10
45.59361862498221
 20
389.224999952315
 30
0.0
 11
44.65392600419625
 21
384.6432575293879
 31
0.0
 11
44.1390889002676
 21
384.9908600240807
 31
0.0
 11
43.73056238965889
 21
385.472518564992
 31
0.0
 11
43.45820776324133
 21
386.0530307719138
 31
0.0
 11
43.34192887170645
 21
386.6899656838506
 31
0.0
 11
43.39022731847412
 21
387.3367703304837
 31
0.0
 11
43.59957014483109
 21
387.9461700264842
 31
0.0
 11
43.95465915617297
 21
388.473622737416
 31
0.0
 11
44.42953860602969
 21
388.880578724584
 31
0.0
 11
44.98950135424565
 21
389.1372912412567
 31
0.0
 11
45.59361862498221
 21
389.224999952315
 31
0.0
  0
ENDBLK
  5
49
330
47
100
AcDbEntity
  8
0
100
AcDbBlockEnd
  0
BLOCK
  5
4C
330
4A
100
AcDbEntity
  8
0
100
AcDbBlockBegin
  2
Drfsicht1
 70
     0
 10
22.0
 20
387.0
 30
0.0
  3
Drfsicht1
  1

  0
INSERT
  5
4B
330
4A
100
AcDbEntity
  8
0
100
AcDbBlockReference
  2
STN-2_5-SELECT__1
 10
-7.74212315536471
 20
384.4249999523163
 30
0.0
  0
MTEXT
  5
E5
330
4A
100
AcDbEntity
  8
1
 62
     6
100
AcDbMText
 10
21.90933503582096
 20
379.4249999523163
 30
0.0
 40
5.0
 41
0.0
 71
     2
 72
     1
  1
 
  7
CONVERTER_11
 73
     1
 44
1.32052821128451
  0
DIMENSION
  5
F2
330
4A
100
AcDbEntity
  8
1
100
AcDbDimension
  2
*D17
 10
-17.74212315536472
 20
389.5749999523169
 30
0.0
 11
-21.16712315536472
 21
387.3789032096682
 31
0.0
 70
    32
  1
<>
 71
     5
 42
-1.0
 53
90.0
  3
ME10_DIM_10
100
AcDbAlignedDimension
 13
-7.74212315536471
 23
384.4249999523163
 33
0.0
 14
-7.74212315536471
 24
389.5749999523168
 34
0.0
 50
90.0
100
AcDbRotatedDimension
  0
ENDBLK
  5
4D
330
4A
100
AcDbEntity
  8
0
100
AcDbBlockEnd
  0
BLOCK
  5
4F
330
4E
100
AcDbEntity
  8
0
100
AcDbBlockBegin
  2
STN-2_5-SELECT__2
 70
     0
 10
101.9550657611278
 20
376.5575060312932
 30
0.0
  3
STN-2_5-SELECT__2
  1

  0
LINE
  5
F3
330
4E
100
AcDbEntity
  8
0
  6
Continuous
 62
     2
100
AcDbLine
 10
115.6962936150627
 20
396.2395772314798
 30
0.0
 11
115.3001583519984
 21
395.8965140303312
 31
0.0
  0
LINE
  5
F4
330
4E
100
AcDbEntity
  8
0
  6
Continuous
 62
     7
100
AcDbLine
 10
115.9693713949884
 20
396.2168340936675
 30
0.0
 11
116.0333539135491
 21
396.1983639315104
 31
0.0
  0
LINE
  5
F5
330
4E
100
AcDbEntity
  8
0
  6
Continuous
 62
     7
100
AcDbLine
 10
113.9062163333576
 20
391.096647993803
 30
0.0
 11
113.9062163333579
 21
390.1440200496328
 31
0.0
  0
LINE
  5
F6
330
4E
100
AcDbEntity
  8
0
  6
Continuous
 62
     7
100
AcDbLine
 10
115.9126495892217
 20
392.8342701643795
 30
0.0
 11
113.9062163333576
 21
391.096647993803
 31
0.0
  0
LINE
  5
F7
330
4E
100
AcDbEntity
  8
0
  6
Continuous
 62
     7
100
AcDbLine
 10
113.9062163333576
 20
391.096647993803
 30
0.0
 11
115.3001583519984
 21
395.8965140303312
 31
0.0
  0
LINE
  5
F8
330
4E
100
AcDbEntity
  8
0
  6
Continuous
 62
     7
100
AcDbLine
 10
113.9062163333579
 20
390.1440200496328
 30
0.0
 11
115.5430343469488
 21
391.5615460307748
 31
0.0
  0
LINE
  5
F9
330
4E
100
AcDbEntity
  8
0
  6
Continuous
 62
     7
100
AcDbLine
 10
115.2918569794123
 20
390.6966479937964
 30
0.0
 11
116.6189153261658
 21
395.2662084216314
 31
0.0
  0
LINE
  5
FA
330
4E
100
AcDbEntity
  8
0
  6
Continuous
 62
     7
100
AcDbLine
 10
153.4402760161153
 20
384.1874800934905
 30
0.0
 11
153.4402760161161
 21
382.206098552739
 31
0.0
  0
LINE
  5
FB
330
4E
100
AcDbEntity
  8
0
  6
Continuous
 62
     7
100
AcDbLine
 10
153.4402760161161
 20
382.206098552739
 30
0.0
 11
156.0152760161148
 21
384.4361139674832
 31
0.0
  0
LINE
  5
FC
330
4E
100
AcDbEntity
  8
0
  6
Continuous
 62
     7
100
AcDbLine
 10
146.2712814884259
 20
376.5575060312932
 30
0.0
 11
144.2681521668091
 21
377.135759657821
 31
0.0
  0
LINE
  5
FD
330
4E
100
AcDbEntity
  8
0
  6
Continuous
 62
     7
100
AcDbLine
 10
142.8314648197586
 20
381.4923539998052
 30
0.0
 11
143.917715282379
 21
382.4330744953073
 31
0.0
  0
LINE
  5
FE
330
4E
100
AcDbEntity
  8
0
  6
Continuous
 62
     7
100
AcDbLine
 10
142.8314648197586
 20
381.4923539998052
 30
0.0
 11
143.9572978446784
 21
381.4690200496452
 31
0.0
  0
LINE
  5
FF
330
4E
100
AcDbEntity
  8
0
  6
Continuous
 62
     7
100
AcDbLine
 10
156.0152760161141
 20
386.4174955082347
 30
0.0
 11
156.0152760161148
 21
384.4361139674832
 31
0.0
  0
LINE
  5
100
330
4E
100
AcDbEntity
  8
0
  6
Continuous
 62
     7
100
AcDbLine
 10
156.0152760161141
 20
386.4174955082347
 30
0.0
 11
153.4402760161153
 21
384.1874800934905
 31
0.0
  0
LINE
  5
101
330
4E
100
AcDbEntity
  8
0
  6
Continuous
 62
     7
100
AcDbLine
 10
143.9572978446784
 20
381.4690200496452
 30
0.0
 11
143.9572978446781
 21
382.421647993808
 31
0.0
  0
LINE
  5
102
330
4E
100
AcDbEntity
  8
0
  6
Continuous
 62
     7
100
AcDbLine
 10
142.8314648197585
 20
381.1011997266079
 30
0.0
 11
142.8314648197586
 21
381.4923539998052
 31
0.0
  0
LINE
  5
103
330
4E
100
AcDbEntity
  8
0
  6
Continuous
 62
     7
100
AcDbLine
 10
153.4402760161161
 20
382.206098552739
 30
0.0
 11
146.2712814884259
 21
376.5575060312932
 31
0.0
  0
LINE
  5
104
330
4E
100
AcDbEntity
  8
0
  6
Continuous
 62
     7
100
AcDbLine
 10
107.5611546743727
 20
406.2939682539519
 30
0.0
 11
104.9861546743727
 21
404.0639528392066
 31
0.0
  0
LINE
  5
105
330
4E
100
AcDbEntity
  8
0
  6
Continuous
 62
     7
100
AcDbLine
 10
104.5300657611278
 20
405.046576947912
 30
0.0
 11
107.5611546743727
 21
406.2939682539519
 31
0.0
  0
LINE
  5
106
330
4E
100
AcDbEntity
  8
0
  6
Continuous
 62
     7
100
AcDbLine
 10
107.5611546743727
 20
406.2939682539519
 30
0.0
 11
111.9143579046474
 21
405.0373067255355
 31
0.0
  0
LINE
  5
107
330
4E
100
AcDbEntity
  8
0
  6
Continuous
 62
     7
100
AcDbLine
 10
116.4570493582786
 20
390.3602859269988
 30
0.0
 11
115.0320493582777
 21
389.126199726605
 31
0.0
  0
LINE
  5
108
330
4E
100
AcDbEntity
  8
0
  6
Continuous
 62
     7
100
AcDbLine
 10
115.0320493582773
 20
389.5173539997939
 30
0.0
 11
116.1182998208977
 21
390.4580744952961
 31
0.0
  0
LINE
  5
109
330
4E
100
AcDbEntity
  8
0
  6
Continuous
 62
     7
100
AcDbLine
 10
101.9550657611321
 20
392.0351743228162
 30
0.0
 11
101.9550657611321
 21
389.3504955710842
 31
0.0
  0
LINE
  5
10A
330
4E
100
AcDbEntity
  8
0
  6
Continuous
 62
     7
100
AcDbLine
 10
113.9062163333579
 20
390.1440200496328
 30
0.0
 11
115.0320493582773
 21
389.5173539997939
 31
0.0
  0
LINE
  5
10B
330
4E
100
AcDbEntity
  8
0
  6
Continuous
 62
     7
100
AcDbLine
 10
115.0320493582773
 20
389.5173539997939
 30
0.0
 11
115.0320493582777
 21
389.126199726605
 31
0.0
  0
LINE
  5
10C
330
4E
100
AcDbEntity
  8
0
  6
Continuous
 62
     7
100
AcDbLine
 10
103.2541038668102
 20
390.2745336767624
 30
0.0
 11
103.2541038668094
 21
391.0792268208854
 31
0.0
  0
LINE
  5
10D
330
4E
100
AcDbEntity
  8
0
  6
Continuous
 62
     7
100
AcDbLine
 10
105.072757214756
 20
389.749533676763
 30
0.0
 11
103.2541038668102
 21
390.2745336767624
 31
0.0
  0
LINE
  5
10E
330
4E
100
AcDbEntity
  8
0
  6
Continuous
 62
     7
100
AcDbLine
 10
103.2541038668102
 20
390.2745336767624
 30
0.0
 11
105.0727572147552
 21
391.8495336767606
 31
0.0
  0
LINE
  5
10F
330
4E
100
AcDbEntity
  8
0
  6
Continuous
 62
     7
100
AcDbLine
 10
113.5953620112192
 20
385.9902314843718
 30
0.0
 11
101.9550657611321
 21
389.3504955710842
 31
0.0
  0
LINE
  5
110
330
4E
100
AcDbEntity
  8
0
  6
Continuous
 62
     7
100
AcDbLine
 10
116.170362011219
 20
388.2202468991169
 30
0.0
 11
113.5953620112192
 21
385.9902314843718
 31
0.0
  0
LINE
  5
111
330
4E
100
AcDbEntity
  8
0
  6
Continuous
 62
     7
100
AcDbLine
 10
105.0727572147549
 20
392.6445862328363
 30
0.0
 11
103.3236769281753
 21
391.1298382713996
 31
0.0
  0
LINE
  5
112
330
4E
100
AcDbEntity
  8
0
  6
Continuous
 62
     7
100
AcDbLine
 10
105.072757214756
 20
389.749533676763
 30
0.0
 11
105.0727572147522
 21
399.3624156587704
 31
0.0
  0
LINE
  5
113
330
4E
100
AcDbEntity
  8
0
  6
Continuous
 62
     7
100
AcDbLine
 10
102.8210911649077
 20
416.466898330675
 30
0.0
 11
102.8210911649051
 21
422.8321850484914
 31
0.0
  0
LINE
  5
114
330
4E
100
AcDbEntity
  8
0
  6
Continuous
 62
     7
100
AcDbLine
 10
101.9550657611278
 20
402.8165615331667
 30
0.0
 11
101.9550657611288
 21
400.262415658769
 31
0.0
  0
LINE
  5
115
330
4E
100
AcDbEntity
  8
0
  6
Continuous
 62
     2
100
AcDbLine
 10
105.0727572147541
 20
394.6145971862211
 30
0.0
 11
104.8094886245376
 21
394.3865998990751
 31
0.0
  0
LINE
  5
116
330
4E
100
AcDbEntity
  8
0
  6
Continuous
 62
     7
100
AcDbLine
 10
101.9550657611278
 20
402.8165615331667
 30
0.0
 11
104.9861546743727
 21
404.0639528392066
 31
0.0
  0
LINE
  5
117
330
4E
100
AcDbEntity
  8
0
  6
Continuous
 62
     7
100
AcDbLine
 10
104.5300657611278
 20
405.046576947912
 30
0.0
 11
101.9550657611278
 21
402.8165615331667
 31
0.0
  0
LINE
  5
118
330
4E
100
AcDbEntity
  8
0
  6
Continuous
 62
     7
100
AcDbLine
 10
105.0727572147522
 20
399.3624156587704
 30
0.0
 11
101.9550657611288
 21
400.262415658769
 31
0.0
  0
LINE
  5
119
330
4E
100
AcDbEntity
  8
0
  6
Continuous
 62
     7
100
AcDbLine
 10
104.7203003209008
 20
394.7205257889779
 30
0.0
 11
102.1453003209009
 21
392.4905103742327
 31
0.0
  0
LINE
  5
11A
330
4E
100
AcDbEntity
  8
0
  6
Continuous
 62
     7
100
AcDbLine
 10
139.4486156616678
 20
407.2379857121075
 30
0.0
 11
137.0323266942606
 21
408.8149655165147
 31
0.0
  0
LINE
  5
11B
330
4E
100
AcDbEntity
  8
0
  6
Continuous
 62
     7
100
AcDbLine
 10
139.0323266942606
 20
410.5470163240836
 30
0.0
 11
140.4247984175162
 21
409.6382261026315
 31
0.0
  0
LINE
  5
11C
330
4E
100
AcDbEntity
  8
0
  6
Continuous
 62
     7
100
AcDbLine
 10
139.0323266942606
 20
410.5470163240836
 30
0.0
 11
138.0561439384112
 21
408.1467759335602
 31
0.0
  0
LINE
  5
11D
330
4E
100
AcDbEntity
  8
0
  6
Continuous
 62
     7
100
AcDbLine
 10
137.0323266942606
 20
408.8149655165147
 30
0.0
 11
139.0323266942606
 21
410.5470163240836
 31
0.0
  0
LINE
  5
11E
330
4E
100
AcDbEntity
  8
0
  6
Continuous
 62
     7
100
AcDbLine
 10
139.308289390515
 20
406.8929511559701
 30
0.0
 11
132.7979079397617
 21
411.1419214593199
 31
0.0
  0
LINE
  5
11F
330
4E
100
AcDbEntity
  8
0
  6
Continuous
 62
     7
100
AcDbLine
 10
137.6488706359979
 20
411.4499225135309
 30
0.0
 11
135.6488706359979
 21
409.717871705962
 31
0.0
  0
LINE
  5
120
330
4E
100
AcDbEntity
  8
0
  6
Continuous
 62
     7
100
AcDbLine
 10
136.5653833304707
 20
418.1233032434768
 30
0.0
 11
136.646559910446
 21
416.5035952496709
 31
0.0
  0
LINE
  5
121
330
4E
100
AcDbEntity
  8
0
  6
Continuous
 62
     7
100
AcDbLine
 10
136.646559910446
 20
416.5035952496709
 30
0.0
 11
134.0715599104464
 21
414.273579834926
 31
0.0
  0
LINE
  5
122
330
4E
100
AcDbEntity
  8
0
  6
Continuous
 62
     7
100
AcDbLine
 10
136.1547387935479
 20
418.3913084987462
 30
0.0
 11
136.5653833304707
 21
418.1233032434768
 31
0.0
  0
LINE
  5
123
330
4E
100
AcDbEntity
  8
0
  6
Continuous
 62
     7
100
AcDbLine
 10
136.646559910446
 20
416.5035952496709
 30
0.0
 11
135.3729079397612
 21
413.3719368740648
 31
0.0
  0
LINE
  5
124
330
4E
100
AcDbEntity
  8
0
  6
Continuous
 62
     7
100
AcDbLine
 10
135.3729079397612
 20
413.3719368740648
 30
0.0
 11
135.0854079397594
 21
413.1229545704721
 31
0.0
  0
LINE
  5
125
330
4E
100
AcDbEntity
  8
0
  6
Continuous
 62
     7
100
AcDbLine
 10
135.0854079397594
 20
413.1229545704721
 30
0.0
 11
134.1092251838949
 21
410.7227141799643
 31
0.0
  0
LINE
  5
126
330
4E
100
AcDbEntity
  8
0
  6
Continuous
 62
     7
100
AcDbLine
 10
134.0715599104464
 20
414.273579834926
 30
0.0
 11
132.7979079397617
 21
411.1419214593199
 31
0.0
  0
LINE
  5
127
330
4E
100
AcDbEntity
  8
0
  6
Continuous
 62
     7
100
AcDbLine
 10
131.8846043958555
 20
416.6506362344108
 30
0.0
 11
133.5797387935515
 21
416.1612930840003
 31
0.0
  0
LINE
  5
128
330
4E
100
AcDbEntity
  8
0
  6
Continuous
 62
     7
100
AcDbLine
 10
133.9903833304711
 20
415.8932878287318
 30
0.0
 11
134.0715599104464
 21
414.273579834926
 31
0.0
  0
LINE
  5
129
330
4E
100
AcDbEntity
  8
0
  6
Continuous
 62
     7
100
AcDbLine
 10
133.5797387935515
 20
416.1612930840003
 30
0.0
 11
133.9903833304711
 21
415.8932878287318
 31
0.0
  0
LINE
  5
12A
330
4E
100
AcDbEntity
  8
0
  6
Continuous
 62
     7
100
AcDbLine
 10
131.5406586179071
 20
414.9269413531906
 30
0.0
 11
131.0834851347938
 21
415.0589159699613
 31
0.0
  0
LINE
  5
12B
330
4E
100
AcDbEntity
  8
0
  6
Continuous
 62
     7
100
AcDbLine
 10
131.8846043958555
 20
416.6506362344108
 30
0.0
 11
131.0834851347938
 21
415.0589159699613
 31
0.0
  0
LINE
  5
12C
330
4E
100
AcDbEntity
  8
0
  6
Continuous
 62
     7
100
AcDbLine
 10
131.5406586179071
 20
414.9269413531906
 30
0.0
 11
131.5406586179075
 21
414.0002941711394
 31
0.0
  0
LINE
  5
12D
330
4E
100
AcDbEntity
  8
0
  6
Continuous
 62
     7
100
AcDbLine
 10
133.0854079397595
 20
411.3909037629031
 30
0.0
 11
132.7979079397617
 21
411.1419214593199
 31
0.0
  0
LINE
  5
12E
330
4E
100
AcDbEntity
  8
0
  6
Continuous
 62
     7
100
AcDbLine
 10
128.6380479389703
 20
417.8115595858825
 30
0.0
 11
128.6380479389702
 21
418.2103083008453
 31
0.0
  0
LINE
  5
12F
330
4E
100
AcDbEntity
  8
0
  6
Continuous
 62
     7
100
AcDbLine
 10
126.5202214220854
 20
416.3762167364147
 30
0.0
 11
125.7191021610168
 21
418.4304634218942
 31
0.0
  0
LINE
  5
130
330
4E
100
AcDbEntity
  8
0
  6
Continuous
 62
     7
100
AcDbLine
 10
126.5202214220854
 20
416.3762167364147
 30
0.0
 11
129.0952214220852
 21
418.6062321511598
 31
0.0
  0
LINE
  5
131
330
4E
100
AcDbEntity
  8
0
  6
Continuous
 62
     7
100
AcDbLine
 10
126.0630479389706
 20
415.5815441711374
 30
0.0
 11
126.0630479389702
 21
416.5081913531859
 31
0.0
  0
LINE
  5
132
330
4E
100
AcDbEntity
  8
0
  6
Continuous
 62
     7
100
AcDbLine
 10
128.6380479389703
 20
417.8115595858825
 30
0.0
 11
126.0630479389706
 21
415.5815441711374
 31
0.0
  0
LINE
  5
133
330
4E
100
AcDbEntity
  8
0
  6
Continuous
 62
     7
100
AcDbLine
 10
126.5202214220854
 20
416.3762167364147
 30
0.0
 11
126.0630479389702
 21
416.5081913531859
 31
0.0
  0
LINE
  5
134
330
4E
100
AcDbEntity
  8
0
  6
Continuous
 62
     7
100
AcDbLine
 10
128.6380479389703
 20
417.8115595858825
 30
0.0
 11
132.0783543958562
 21
416.8184286563948
 31
0.0
  0
LINE
  5
135
330
4E
100
AcDbEntity
  8
0
  6
Continuous
 62
     7
100
AcDbLine
 10
133.9903833304711
 20
415.8932878287318
 30
0.0
 11
136.5653833304707
 21
418.1233032434768
 31
0.0
  0
LINE
  5
136
330
4E
100
AcDbEntity
  8
0
  6
Continuous
 62
     7
100
AcDbLine
 10
136.1547387935479
 20
418.3913084987462
 30
0.0
 11
133.5797387935515
 21
416.1612930840003
 31
0.0
  0
LINE
  5
137
330
4E
100
AcDbEntity
  8
0
  6
Continuous
 62
     7
100
AcDbLine
 10
126.0630479389706
 20
415.5815441711374
 30
0.0
 11
131.5406586179075
 21
414.0002941711394
 31
0.0
  0
LINE
  5
138
330
4E
100
AcDbEntity
  8
0
  6
Continuous
 62
     7
100
AcDbLine
 10
135.6488706359979
 20
409.717871705962
 30
0.0
 11
133.0854079397595
 21
411.3909037629031
 31
0.0
  0
LINE
  5
139
330
4E
100
AcDbEntity
  8
0
  6
Continuous
 62
     7
100
AcDbLine
 10
135.0854079397594
 20
413.1229545704721
 30
0.0
 11
137.6488706359979
 21
411.4499225135309
 31
0.0
  0
LINE
  5
13A
330
4E
100
AcDbEntity
  8
0
  6
Continuous
 62
     7
100
AcDbLine
 10
140.5651246886695
 20
409.9832606587694
 30
0.0
 11
135.3729079397612
 21
413.3719368740648
 31
0.0
  0
LINE
  5
13B
330
4E
100
AcDbEntity
  8
0
  6
Continuous
 62
     7
100
AcDbLine
 10
105.3960911649055
 20
425.062200463237
 30
0.0
 11
113.8831401219925
 21
422.6122004632403
 31
0.0
  0
LINE
  5
13C
330
4E
100
AcDbEntity
  8
0
  6
Continuous
 62
     7
100
AcDbLine
 10
105.3960911649055
 20
425.062200463237
 30
0.0
 11
102.8210911649051
 21
422.8321850484914
 31
0.0
  0
LINE
  5
13D
330
4E
100
AcDbEntity
  8
0
  6
Continuous
 62
     7
100
AcDbLine
 10
113.8831401219925
 20
422.6122004632403
 30
0.0
 11
111.3081401219925
 21
420.3821850484949
 31
0.0
  0
LINE
  5
13E
330
4E
100
AcDbEntity
  8
0
  6
Continuous
 62
     7
100
AcDbLine
 10
111.3081401219925
 20
420.3821850484949
 30
0.0
 11
114.4620118802074
 21
421.6801054738481
 31
0.0
  0
LINE
  5
13F
330
4E
100
AcDbEntity
  8
0
  6
Continuous
 62
     7
100
AcDbLine
 10
116.8923379265753
 20
423.5766069866575
 30
0.0
 11
116.8923379265753
 21
421.4115434771966
 31
0.0
  0
LINE
  5
140
330
4E
100
AcDbEntity
  8
0
  6
Continuous
 62
     7
100
AcDbLine
 10
125.5525919644199
 20
421.0766069866608
 30
0.0
 11
123.6775919644195
 21
419.4528093545644
 31
0.0
  0
LINE
  5
141
330
4E
100
AcDbEntity
  8
0
  6
Continuous
 62
     7
100
AcDbLine
 10
123.6775919644195
 20
419.4528093545644
 30
0.0
 11
115.0173379265751
 21
421.9528093545613
 31
0.0
  0
LINE
  5
142
330
4E
100
AcDbEntity
  8
0
  6
Continuous
 62
     7
100
AcDbLine
 10
115.0173379265751
 20
421.9528093545613
 30
0.0
 11
116.8923379265753
 21
423.5766069866575
 31
0.0
  0
LINE
  5
143
330
4E
100
AcDbEntity
  8
0
  6
Continuous
 62
     7
100
AcDbLine
 10
114.4620118802074
 20
421.6801054738481
 30
0.0
 11
117.0370118802077
 21
423.9101208885936
 31
0.0
  0
LINE
  5
144
330
4E
100
AcDbEntity
  8
0
  6
Continuous
 62
     7
100
AcDbLine
 10
129.0952214220852
 20
418.6062321511598
 30
0.0
 11
128.2941021610166
 21
420.6604788366394
 31
0.0
  0
LINE
  5
145
330
4E
100
AcDbEntity
  8
0
  6
Continuous
 62
     7
100
AcDbLine
 10
128.2941021610166
 20
420.6604788366394
 30
0.0
 11
125.7191021610168
 21
418.4304634218942
 31
0.0
  0
LINE
  5
146
330
4E
100
AcDbEntity
  8
0
  6
Continuous
 62
     7
100
AcDbLine
 10
116.8923379265753
 20
423.5766069866575
 30
0.0
 11
125.5525919644199
 21
421.0766069866608
 31
0.0
  0
LINE
  5
147
330
4E
100
AcDbEntity
  8
0
  6
Continuous
 62
     7
100
AcDbLine
 10
114.4620118802074
 20
421.6801054738481
 30
0.0
 11
125.7191021610168
 21
418.4304634218942
 31
0.0
  0
LINE
  5
148
330
4E
100
AcDbEntity
  8
0
  6
Continuous
 62
     7
100
AcDbLine
 10
117.0370118802077
 20
423.9101208885936
 30
0.0
 11
128.2941021610166
 21
420.6604788366394
 31
0.0
  0
LINE
  5
149
330
4E
100
AcDbEntity
  8
0
  6
Continuous
 62
     7
100
AcDbLine
 10
113.8831401219925
 20
422.6122004632403
 30
0.0
 11
117.0370118802077
 21
423.9101208885936
 31
0.0
  0
LINE
  5
14A
330
4E
100
AcDbEntity
  8
0
  6
Continuous
 62
     7
100
AcDbLine
 10
102.8210911649051
 20
422.8321850484914
 30
0.0
 11
111.3081401219925
 21
420.3821850484949
 31
0.0
  0
LINE
  5
14B
330
4E
100
AcDbEntity
  8
0
  6
Continuous
 62
     7
100
AcDbLine
 10
134.4596043958552
 20
418.8806516491558
 30
0.0
 11
136.1547387935479
 21
418.3913084987462
 31
0.0
  0
LINE
  5
14C
330
4E
100
AcDbEntity
  8
0
  6
Continuous
 62
     7
100
AcDbLine
 10
134.4596043958552
 20
418.8806516491558
 30
0.0
 11
131.8846043958555
 21
416.6506362344108
 31
0.0
  0
LINE
  5
14D
330
4E
100
AcDbEntity
  8
0
  6
Continuous
 62
     7
100
AcDbLine
 10
143.7101808589835
 20
410.0812417559075
 30
0.0
 11
144.6375544770405
 21
412.3614701269049
 31
0.0
  0
LINE
  5
14E
330
4E
100
AcDbEntity
  8
0
  6
Continuous
 62
     7
100
AcDbLine
 10
141.6701915924677
 20
410.8810965327996
 30
0.0
 11
144.2451915924671
 21
413.1111119475443
 31
0.0
  0
LINE
  5
14F
330
4E
100
AcDbEntity
  8
0
  6
Continuous
 62
     7
100
AcDbLine
 10
144.6375544770405
 20
412.3614701269049
 30
0.0
 11
142.7375544770405
 21
410.7160218597144
 31
0.0
  0
LINE
  5
150
330
4E
100
AcDbEntity
  8
0
  6
Continuous
 62
     7
100
AcDbLine
 10
143.1569413612343
 20
412.2546249464418
 30
0.0
 11
140.581941361235
 21
410.0246095316973
 31
0.0
  0
LINE
  5
151
330
4E
100
AcDbEntity
  8
0
  6
Continuous
 62
     7
100
AcDbLine
 10
144.6375544770405
 20
412.3614701269049
 30
0.0
 11
147.7299858531181
 21
410.3432091107882
 31
0.0
  0
LINE
  5
152
330
4E
100
AcDbEntity
  8
0
  6
Continuous
 62
     7
100
AcDbLine
 10
143.1569413612343
 20
412.2546249464418
 30
0.0
 11
144.2451915924671
 21
413.1111119475443
 31
0.0
  0
LINE
  5
153
330
4E
100
AcDbEntity
  8
0
  6
Continuous
 62
     7
100
AcDbLine
 10
139.308289390515
 20
406.8929511559701
 30
0.0
 11
140.581941361235
 21
410.0246095316973
 31
0.0
  0
LINE
  5
154
330
4E
100
AcDbEntity
  8
0
  6
Continuous
 62
     7
100
AcDbLine
 10
140.581941361235
 20
410.0246095316973
 30
0.0
 11
141.6701915924677
 21
410.8810965327996
 31
0.0
  0
LINE
  5
155
330
4E
100
AcDbEntity
  8
0
  6
Continuous
 62
     7
100
AcDbLine
 10
147.4405041797757
 20
407.2808594474181
 30
0.0
 11
147.3313753912399
 21
407.1863511442618
 31
0.0
  0
LINE
  5
156
330
4E
100
AcDbEntity
  8
0
  6
Continuous
 62
     7
100
AcDbLine
 10
147.4405041797757
 20
407.2808594474181
 30
0.0
 11
145.8114144497814
 21
403.2752498970648
 31
0.0
  0
LINE
  5
157
330
4E
100
AcDbEntity
  8
0
  6
Continuous
 62
     7
100
AcDbLine
 10
146.088523483935
 20
402.0251528418174
 30
0.0
 11
146.9699654840706
 21
402.7885040058973
 31
0.0
  0
LINE
  5
158
330
4E
100
AcDbEntity
  8
0
  6
Continuous
 62
     7
100
AcDbLine
 10
145.8299858531181
 20
408.6977608435977
 30
0.0
 11
147.7299858531181
 21
410.3432091107882
 31
0.0
  0
LINE
  5
159
330
4E
100
AcDbEntity
  8
0
  6
Continuous
 62
     7
100
AcDbLine
 10
142.7375544770405
 20
410.7160218597144
 30
0.0
 11
145.8299858531181
 21
408.6977608435977
 31
0.0
  0
LINE
  5
15A
330
4E
100
AcDbEntity
  8
0
  6
Continuous
 62
     7
100
AcDbLine
 10
151.0334516813981
 20
408.4150180526684
 30
0.0
 11
150.5451730725886
 21
408.7336908254216
 31
0.0
  0
LINE
  5
15B
330
4E
100
AcDbEntity
  8
0
  6
Continuous
 62
     2
100
AcDbLine
 10
149.9674801907911
 20
405.7940049159684
 30
0.0
 11
151.0334516813981
 21
408.4150180526684
 31
0.0
  0
LINE
  5
15C
330
4E
100
AcDbEntity
  8
0
  6
Continuous
 62
     2
100
AcDbLine
 10
150.5451730725886
 20
408.7336908254216
 30
0.0
 11
148.6198852098684
 21
403.9997886295503
 31
0.0
  0
LINE
  5
15D
330
4E
100
AcDbEntity
  8
0
  6
Continuous
 62
     7
100
AcDbLine
 10
146.9989327025952
 20
404.2485414416341
 30
0.0
 11
145.7840341926601
 21
403.1964084690173
 31
0.0
  0
LINE
  5
15E
330
4E
100
AcDbEntity
  8
0
  6
Continuous
 62
     2
100
AcDbLine
 10
145.8114144497814
 20
403.2752498970648
 30
0.0
 11
145.7022856612457
 21
403.1807415939088
 31
0.0
  0
LINE
  5
15F
330
4E
100
AcDbEntity
  8
0
  6
Continuous
 62
     7
100
AcDbLine
 10
146.5682230803524
 20
403.3832550012917
 30
0.0
 11
145.7582638242818
 21
402.6818097095042
 31
0.0
  0
LINE
  5
160
330
4E
100
AcDbEntity
  8
0
  6
Continuous
 62
     7
100
AcDbLine
 10
146.9699654840706
 20
402.7885040058973
 30
0.0
 11
146.5682230803524
 21
403.3832550012917
 31
0.0
  0
LINE
  5
161
330
4E
100
AcDbEntity
  8
0
  6
Continuous
 62
     7
100
AcDbLine
 10
146.9699654840706
 20
402.7885040058973
 30
0.0
 11
146.5339264071988
 21
401.7163701273971
 31
0.0
  0
LINE
  5
162
330
4E
100
AcDbEntity
  8
0
  6
Continuous
 62
     7
100
AcDbLine
 10
146.7856307734618
 20
403.9178175338323
 30
0.0
 11
146.5682230803524
 21
403.3832550012917
 31
0.0
  0
LINE
  5
163
330
4E
100
AcDbEntity
  8
0
  6
Continuous
 62
     7
100
AcDbLine
 10
146.2198852098685
 20
401.9213276604676
 30
0.0
 11
146.7081638186779
 21
401.6026548877153
 31
0.0
  0
LINE
  5
164
330
4E
100
AcDbEntity
  8
0
  6
Continuous
 62
     7
100
AcDbLine
 10
147.6575065056296
 20
402.3900586911774
 30
0.0
 11
147.9741586982938
 21
402.1833971040954
 31
0.0
  0
LINE
  5
165
330
4E
100
AcDbEntity
  8
0
  6
Continuous
 62
     2
100
AcDbLine
 10
147.6575065056296
 20
402.3900586911774
 30
0.0
 11
148.6198852098684
 21
403.9997886295503
 31
0.0
  0
LINE
  5
166
330
4E
100
AcDbEntity
  8
0
  6
Continuous
 62
     7
100
AcDbLine
 10
148.6198852098684
 20
403.9997886295503
 30
0.0
 11
148.6933808070469
 21
403.95182206842
 31
0.0
  0
LINE
  5
167
330
4E
100
AcDbEntity
  8
0
  6
Continuous
 62
     7
100
AcDbLine
 10
149.4472493627485
 20
405.8054357956638
 30
0.0
 11
149.5563781512846
 21
405.8999440988197
 31
0.0
  0
LINE
  5
168
330
4E
100
AcDbEntity
  8
0
  6
Continuous
 62
     7
100
AcDbLine
 10
151.4958223555295
 20
403.4104194781659
 30
0.0
 11
151.556858439028
 21
403.1650101138351
 31
0.0
  0
LINE
  5
169
330
4E
100
AcDbEntity
  8
0
  6
Continuous
 62
     7
100
AcDbLine
 10
151.556858439028
 20
403.1650101138351
 30
0.0
 11
151.9316250330571
 21
403.4315909108906
 31
0.0
  0
LINE
  5
16A
330
4E
100
AcDbEntity
  8
0
  6
Continuous
 62
     7
100
AcDbLine
 10
150.6007499105293
 20
403.428970697893
 30
0.0
 11
151.4958223555295
 21
403.4104194781659
 31
0.0
  0
LINE
  5
16B
330
4E
100
AcDbEntity
  8
0
  6
Continuous
 62
     7
100
AcDbLine
 10
151.7082252085389
 20
404.3298203808028
 30
0.0
 11
151.9316250330571
 21
403.4315909108906
 31
0.0
  0
LINE
  5
16C
330
4E
100
AcDbEntity
  8
0
  6
Continuous
 62
     7
100
AcDbLine
 10
154.283225208538
 20
406.5598357955473
 30
0.0
 11
154.5066250330562
 21
405.661606325635
 31
0.0
  0
LINE
  5
16D
330
4E
100
AcDbEntity
  8
0
  6
Continuous
 62
     7
100
AcDbLine
 10
155.7240505932067
 20
400.0205516523025
 30
0.0
 11
156.0152760161088
 21
399.8478661193446
 31
0.0
  0
LINE
  5
16E
330
4E
100
AcDbEntity
  8
0
  6
Continuous
 62
     7
100
AcDbLine
 10
155.4274962373978
 20
400.1856210210302
 30
0.0
 11
155.7240505932067
 21
400.0205516523025
 31
0.0
  0
LINE
  5
16F
330
4E
100
AcDbEntity
  8
0
  6
Continuous
 62
     7
100
AcDbLine
 10
152.8524962373989
 20
397.9556056062858
 30
0.0
 11
152.9135323208973
 21
397.7101962419571
 31
0.0
  0
LINE
  5
170
330
4E
100
AcDbEntity
  8
0
  6
Continuous
 62
     7
100
AcDbLine
 10
152.8524962373989
 20
397.9556056062858
 30
0.0
 11
153.1490505932078
 21
397.7905362375581
 31
0.0
  0
LINE
  5
171
330
4E
100
AcDbEntity
  8
0
  6
Continuous
 62
     7
100
AcDbLine
 10
153.1490505932078
 20
397.7905362375581
 30
0.0
 11
153.4402760161099
 21
397.6178507046003
 31
0.0
  0
LINE
  5
172
330
4E
100
AcDbEntity
  8
0
  6
Continuous
 62
     7
100
AcDbLine
 10
155.1521717790724
 20
399.9471830458372
 30
0.0
 11
154.593459875897
 21
399.958762876428
 31
0.0
  0
LINE
  5
173
330
4E
100
AcDbEntity
  8
0
  6
Continuous
 62
     7
100
AcDbLine
 10
152.9135323208973
 20
397.7101962419571
 30
0.0
 11
152.018459875898
 21
397.7287474616836
 31
0.0
  0
LINE
  5
174
330
4E
100
AcDbEntity
  8
0
  6
Continuous
 62
     7
100
AcDbLine
 10
156.0152760161088
 20
399.8478661193446
 30
0.0
 11
156.01527601611
 21
396.8098003536491
 31
0.0
  0
LINE
  5
175
330
4E
100
AcDbEntity
  8
0
  6
Continuous
 62
     7
100
AcDbLine
 10
153.4402760161099
 20
397.6178507046003
 30
0.0
 11
156.0152760161088
 21
399.8478661193446
 31
0.0
  0
LINE
  5
176
330
4E
100
AcDbEntity
  8
0
  6
Continuous
 62
     7
100
AcDbLine
 10
153.4402760161099
 20
397.6178507046003
 30
0.0
 11
153.4402760161111
 21
394.5797849389048
 31
0.0
  0
LINE
  5
177
330
4E
100
AcDbEntity
  8
0
  6
Continuous
 62
     7
100
AcDbLine
 10
156.01527601611
 20
396.8098003536491
 30
0.0
 11
153.4402760161111
 21
394.5797849389048
 31
0.0
  0
LINE
  5
178
330
4E
100
AcDbEntity
  8
0
  6
Continuous
 62
     7
100
AcDbLine
 10
154.5066250330562
 20
405.661606325635
 30
0.0
 11
151.9316250330571
 21
403.4315909108906
 31
0.0
  0
LINE
  5
179
330
4E
100
AcDbEntity
  8
0
  6
Continuous
 62
     7
100
AcDbLine
 10
154.593459875897
 20
399.958762876428
 30
0.0
 11
153.4110701408757
 21
404.7128279577663
 31
0.0
  0
LINE
  5
17A
330
4E
100
AcDbEntity
  8
0
  6
Continuous
 62
     7
100
AcDbLine
 10
154.283225208538
 20
406.5598357955473
 30
0.0
 11
151.7082252085389
 21
404.3298203808028
 31
0.0
  0
LINE
  5
17B
330
4E
100
AcDbEntity
  8
0
  6
Continuous
 62
     7
100
AcDbLine
 10
152.018459875898
 20
397.7287474616836
 30
0.0
 11
154.593459875897
 21
399.958762876428
 31
0.0
  0
LINE
  5
17C
330
4E
100
AcDbEntity
  8
0
  6
Continuous
 62
     7
100
AcDbLine
 10
152.018459875898
 20
397.7287474616836
 30
0.0
 11
150.6007499105293
 21
403.428970697893
 31
0.0
  0
LINE
  5
17D
330
4E
100
AcDbEntity
  8
0
  6
Continuous
 62
     7
100
AcDbLine
 10
151.7082252085389
 20
404.3298203808028
 30
0.0
 11
149.4472493627485
 21
405.8054357956638
 31
0.0
  0
LINE
  5
17E
330
4E
100
AcDbEntity
  8
0
  6
Continuous
 62
     7
100
AcDbLine
 10
147.8181596327542
 20
401.7998262453104
 30
0.0
 11
149.4472493627485
 21
405.8054357956638
 31
0.0
  0
LINE
  5
17F
330
4E
100
AcDbEntity
  8
0
  6
Continuous
 62
     7
100
AcDbLine
 10
155.7240505932067
 20
400.0205516523025
 30
0.0
 11
153.1490505932078
 21
397.7905362375581
 31
0.0
  0
LINE
  5
180
330
4E
100
AcDbEntity
  8
0
  6
Continuous
 62
     7
100
AcDbLine
 10
152.8524962373989
 20
397.9556056062858
 30
0.0
 11
155.4274962373978
 21
400.1856210210302
 31
0.0
  0
LINE
  5
181
330
4E
100
AcDbEntity
  8
0
  6
Continuous
 62
     7
100
AcDbLine
 10
147.3313753912399
 20
407.1863511442618
 30
0.0
 11
145.7022856612457
 21
403.1807415939088
 31
0.0
  0
LINE
  5
182
330
4E
100
AcDbEntity
  8
0
  6
Continuous
 62
     7
100
AcDbLine
 10
147.3313753912399
 20
407.1863511442618
 30
0.0
 11
141.6701915924677
 21
410.8810965327996
 31
0.0
  0
LINE
  5
183
330
4E
100
AcDbEntity
  8
0
  6
Continuous
 62
     7
100
AcDbLine
 10
144.2451915924671
 20
413.1111119475443
 30
0.0
 11
154.283225208538
 21
406.5598357955473
 31
0.0
  0
LINE
  5
184
330
4E
100
AcDbEntity
  8
0
  6
Continuous
 62
     7
100
AcDbLine
 10
111.9143579046486
 20
402.0639528392093
 30
0.0
 11
111.9143579046437
 21
413.8418983306789
 31
0.0
  0
LINE
  5
185
330
4E
100
AcDbEntity
  8
0
  6
Continuous
 62
     7
100
AcDbLine
 10
105.0727572147542
 20
394.3106008033599
 30
0.0
 11
104.8094886245376
 21
394.3865998990751
 31
0.0
  0
LINE
  5
186
330
4E
100
AcDbEntity
  8
0
  6
Continuous
 62
     7
100
AcDbLine
 10
104.9861546743727
 20
404.0639528392066
 30
0.0
 11
111.9143579046486
 21
402.0639528392093
 31
0.0
  0
LINE
  5
187
330
4E
100
AcDbEntity
  8
0
  6
Continuous
 62
     7
100
AcDbLine
 10
102.8210911649077
 20
416.466898330675
 30
0.0
 11
111.9143579046437
 21
413.8418983306789
 31
0.0
  0
LINE
  5
188
330
4E
100
AcDbEntity
  8
0
  6
Continuous
 62
     7
100
AcDbLine
 10
143.9572978446781
 20
382.421647993808
 30
0.0
 11
115.2918569794123
 21
390.6966479937964
 31
0.0
  0
SPLINE
  5
189
330
4E
100
AcDbEntity
  8
0
  6
Continuous
 62
     7
100
AcDbSpline
210
0.0
220
0.0
230
1.0
 70
     8
 71
     3
 72
    13
 73
     9
 74
     7
 42
0.000000001
 43
0.0000000001
 44
0.00000001
 40
0.0
 40
0.0
 40
0.0
 40
0.0
 40
0.1786790018159406
 40
0.373316819737787
 40
0.5805754032486137
 40
0.7934323199534328
 40
1.003406453592473
 40
1.202756065546298
 40
1.202756065546298
 40
1.202756065546298
 40
1.202756065546298
 10
116.6189153261658
 20
395.2662084216314
 30
0.0
 10
116.6293582289955
 20
395.3253428594341
 30
0.0
 10
116.6511767337793
 20
395.4488933624055
 30
0.0
 10
116.6087370027305
 20
395.6420138535487
 30
0.0
 10
116.520447271872
 20
395.8283917594113
 30
0.0
 10
116.387109371797
 20
395.9926541652991
 30
0.0
 10
116.223897862275
 20
396.1255271308564
 30
0.0
 10
116.0957599035076
 20
396.1745087962981
 30
0.0
 10
116.0333539135491
 20
396.1983639315104
 30
0.0
 11
116.6189153261658
 21
395.2662084216314
 31
0.0
 11
116.6389943038957
 21
395.443755658168
 31
0.0
 11
116.6030122904938
 21
395.6350386331321
 31
0.0
 11
116.5142984929168
 21
395.8223511631508
 31
0.0
 11
116.3810661489736
 21
395.9883548084413
 31
0.0
 11
116.21564699396
 21
396.117682455676
 31
0.0
 11
116.0333539135491
 21
396.1983639315104
 31
0.0
  0
SPLINE
  5
18A
330
4E
100
AcDbEntity
  8
0
  6
Continuous
 62
     7
100
AcDbSpline
210
0.0
220
0.0
230
1.0
 70
     8
 71
     3
 72
    11
 73
     7
 74
     5
 42
0.000000001
 43
0.0000000001
 44
0.00000001
 40
0.0
 40
0.0
 40
0.0
 40
0.0
 40
0.1497129525548556
 40
0.2904290198217875
 40
0.4236305544428048
 40
0.5525148435994616
 40
0.5525148435994616
 40
0.5525148435994616
 40
0.5525148435994616
 10
115.9693713949884
 20
396.2168340936675
 30
0.0
 10
115.9205229033073
 20
396.2280987341902
 30
0.0
 10
115.8257614303445
 20
396.2499510608959
 30
0.0
 10
115.6833097882751
 20
396.2427934742827
 30
0.0
 10
115.5517302081738
 20
396.2060500947803
 30
0.0
 10
115.480618573661
 20
396.15423682019
 30
0.0
 10
115.4456484584223
 20
396.1287569274546
 30
0.0
 11
115.9693713949884
 21
396.2168340936675
 31
0.0
 11
115.8220554891612
 21
396.2435172749165
 31
0.0
 11
115.6814771105193
 21
396.2372937962041
 31
0.0
 11
115.5540657340155
 21
396.198448066449
 31
0.0
 11
115.4456484584223
 21
396.1287569274546
 31
0.0
  0
SPLINE
  5
18B
330
4E
100
AcDbEntity
  8
0
  6
Continuous
 62
     7
100
AcDbSpline
210
0.0
220
0.0
230
1.0
 70
     8
 71
     3
 72
     9
 73
     5
 74
     3
 42
0.000000001
 43
0.0000000001
 44
0.00000001
 40
0.0
 40
0.0
 40
0.0
 40
0.0
 40
0.1359563309104528
 40
0.2769419554988568
 40
0.2769419554988568
 40
0.2769419554988568
 40
0.2769419554988568
 10
115.4456484584223
 20
396.1287569274546
 30
0.0
 10
115.4135011331206
 20
396.0960076959623
 30
0.0
 10
115.3480173051373
 20
396.0292977624125
 30
0.0
 10
115.3163033069668
 20
395.941307912341
 30
0.0
 10
115.3001583519984
 20
395.8965140303312
 30
0.0
 11
115.4456484584223
 21
396.1287569274546
 31
0.0
 11
115.3573450994957
 21
396.0253807159318
 31
0.0
 11
115.3001583519984
 21
395.8965140303312
 31
0.0
  0
SPLINE
  5
18C
330
4E
100
AcDbEntity
  8
0
  6
Continuous
 62
     7
100
AcDbSpline
210
0.0
220
0.0
230
1.0
 70
     8
 71
     3
 72
    13
 73
     9
 74
     7
 42
0.000000001
 43
0.0000000001
 44
0.00000001
 40
0.0
 40
0.0
 40
0.0
 40
0.0
 40
1.618800875635322
 40
3.296662960635396
 40
5.042045806820148
 40
6.857713221236901
 40
8.741157514548688
 40
10.68531582207058
 40
10.68531582207058
 40
10.68531582207058
 40
10.68531582207058
 10
156.01527601611
 20
396.8098003536491
 30
0.0
 10
155.7983693290884
 20
396.3143796514922
 30
0.0
 10
155.3566422274435
 20
395.3054630441023
 30
0.0
 10
155.0110203216277
 20
393.6497475218694
 30
0.0
 10
154.8885680763284
 20
391.903318230742
 30
0.0
 10
155.0194810035662
 20
390.0881532298001
 30
0.0
 10
155.3764722360538
 20
388.2346048742111
 30
0.0
 10
155.8001015273679
 20
387.0295701102527
 30
0.0
 10
156.0152760161141
 20
386.4174955082347
 30
0.0
 11
156.01527601611
 21
396.8098003536491
 31
0.0
 11
155.4165775654976
 21
395.3057802587838
 31
0.0
 11
155.0527993747897
 21
393.667828302311
 31
0.0
 11
154.9307759307476
 21
391.9267161390517
 31
0.0
 11
155.0527993747911
 21
390.115153707527
 31
0.0
 11
155.4165775655005
 21
388.2671743147237
 31
0.0
 11
156.0152760161141
 21
386.4174955082347
 31
0.0
  0
SPLINE
  5
18D
330
4E
100
AcDbEntity
  8
0
  6
Continuous
 62
     7
100
AcDbSpline
210
0.0
220
0.0
230
1.0
 70
     8
 71
     3
 72
    13
 73
     9
 74
     7
 42
0.000000001
 43
0.0000000001
 44
0.00000001
 40
0.0
 40
0.0
 40
0.0
 40
0.0
 40
1.618800875634879
 40
3.296662960635002
 40
5.042045806819695
 40
6.8577132212365
 40
8.741157514548338
 40
10.68531582207033
 40
10.68531582207033
 40
10.68531582207033
 40
10.68531582207033
 10
153.4402760161111
 20
394.5797849389048
 30
0.0
 10
153.2233693290896
 20
394.0843642367481
 30
0.0
 10
152.781642227445
 20
393.0754476293583
 30
0.0
 10
152.4360203216291
 20
391.4197321071255
 30
0.0
 10
152.3135680763299
 20
389.6733028159979
 30
0.0
 10
152.4444810035676
 20
387.8581378150563
 30
0.0
 10
152.8014722360552
 20
386.0045894594668
 30
0.0
 10
153.2251015273692
 20
384.7995546955086
 30
0.0
 10
153.4402760161153
 20
384.1874800934905
 30
0.0
 11
153.4402760161111
 21
394.5797849389048
 31
0.0
 11
152.8415775654991
 21
393.0757648440399
 31
0.0
 11
152.4777993747911
 21
391.437812887567
 31
0.0
 11
152.3557759307491
 21
389.6967007243078
 31
0.0
 11
152.4777993747925
 21
387.885138292783
 31
0.0
 11
152.8415775655019
 21
386.0371588999796
 31
0.0
 11
153.4402760161153
 21
384.1874800934905
 31
0.0
  0
SPLINE
  5
18E
330
4E
100
AcDbEntity
  8
0
  6
Continuous
 62
     7
100
AcDbSpline
210
0.0
220
0.0
230
1.0
 70
     8
 71
     3
 72
    11
 73
     7
 74
     5
 42
0.000000001
 43
0.0000000001
 44
0.00000001
 40
0.0
 40
0.0
 40
0.0
 40
0.0
 40
1.09431343781828
 40
2.169457302750055
 40
3.220281523616457
 40
4.242658325212868
 40
4.242658325212868
 40
4.242658325212868
 40
4.242658325212868
 10
144.2681521668091
 20
377.135759657821
 30
0.0
 10
144.0904073536002
 20
377.4546381073384
 30
0.0
 10
143.7380313749806
 20
378.0868090783254
 30
0.0
 10
143.3293187399582
 20
379.0814654531962
 30
0.0
 10
143.0111561049706
 20
380.0840720564466
 30
0.0
 10
142.8908114738607
 20
380.7652728669262
 30
0.0
 10
142.8314648197585
 20
381.1011997266079
 30
0.0
 11
144.2681521668091
 21
377.135759657821
 31
0.0
 11
143.7545176077312
 21
378.102041935716
 31
0.0
 11
143.3402934016365
 21
379.0941874086363
 31
0.0
 11
143.0311889992798
 21
380.0985210254369
 31
0.0
 11
142.8314648197585
 21
381.1011997266079
 31
0.0
  0
SPLINE
  5
18F
330
4E
100
AcDbEntity
  8
0
  6
Continuous
 62
     7
100
AcDbSpline
210
0.0
220
0.0
230
1.0
 70
     8
 71
     3
 72
     9
 73
     5
 74
     3
 42
0.000000001
 43
0.0000000001
 44
0.00000001
 40
0.0
 40
0.0
 40
0.0
 40
0.0
 40
0.043123143350077
 40
0.0861115098974338
 40
0.0861115098974338
 40
0.0861115098974338
 40
0.0861115098974338
 10
103.2541038668094
 20
391.0792268208854
 30
0.0
 10
103.2662537190128
 20
391.0869382888845
 30
0.0
 10
103.2905154389425
 20
391.1023371399001
 30
0.0
 10
103.3126346423575
 20
391.1206807924214
 30
0.0
 10
103.3236769281753
 20
391.1298382713996
 30
0.0
 11
103.2541038668094
 21
391.0792268208854
 31
0.0
 11
103.2900161107672
 21
391.1030997399106
 31
0.0
 11
103.3236769281753
 21
391.1298382713996
 31
0.0
  0
SPLINE
  5
190
330
4E
100
AcDbEntity
  8
0
  6
Continuous
 62
     7
100
AcDbSpline
210
0.0
220
0.0
230
1.0
 70
     8
 71
     3
 72
    11
 73
     7
 74
     5
 42
0.000000001
 43
0.0000000001
 44
0.00000001
 40
0.0
 40
0.0
 40
0.0
 40
0.0
 40
0.8440176141073779
 40
1.703424486573914
 40
2.585246614932565
 40
3.494813282882982
 40
3.494813282882982
 40
3.494813282882982
 40
3.494813282882982
 10
113.5953620112192
 20
385.9902314843718
 30
0.0
 10
113.7740730761542
 20
386.2083022807364
 30
0.0
 10
114.1347536933117
 20
386.6484200409757
 30
0.0
 10
114.5430657890895
 20
387.4123368226163
 30
0.0
 10
114.8598365155201
 20
388.2409080813839
 30
0.0
 10
114.9740554185326
 20
388.8280712362732
 30
0.0
 10
115.0320493582777
 20
389.126199726605
 30
0.0
 11
113.5953620112192
 21
385.9902314843718
 31
0.0
 11
114.1089965703
 21
386.659966711319
 31
0.0
 11
114.523220776397
 21
387.4129597273472
 31
0.0
 11
114.8323251787554
 21
388.2388318342416
 31
0.0
 11
115.0320493582777
 21
389.126199726605
 31
0.0
  0
SPLINE
  5
191
330
4E
100
AcDbEntity
  8
0
  6
Continuous
 62
     7
100
AcDbSpline
210
0.0
220
0.0
230
1.0
 70
     8
 71
     3
 72
     9
 73
     5
 74
     3
 42
0.000000001
 43
0.0000000001
 44
0.00000001
 40
0.0
 40
0.0
 40
0.0
 40
0.0
 40
1.093322822277051
 40
2.216005069341975
 40
2.216005069341975
 40
2.216005069341975
 40
2.216005069341975
 10
116.170362011219
 20
388.2202468991169
 30
0.0
 10
116.4005161050988
 20
388.5055001450598
 30
0.0
 10
116.867004694092
 20
389.083666664729
 30
0.0
 10
117.1494359429774
 20
389.7709241750463
 30
0.0
 10
117.2925224971792
 20
390.1191056061767
 30
0.0
 11
116.170362011219
 21
388.2202468991169
 31
0.0
 11
116.8160211433127
 21
389.1025615147541
 31
0.0
 11
117.2925224971792
 21
390.1191056061767
 31
0.0
  0
SPLINE
  5
192
330
4E
100
AcDbEntity
  8
0
  6
Continuous
 62
     7
100
AcDbSpline
210
0.0
220
0.0
230
1.0
 70
     8
 71
     3
 72
    11
 73
     7
 74
     5
 42
0.000000001
 43
0.0000000001
 44
0.00000001
 40
0.0
 40
0.0
 40
0.0
 40
0.0
 40
0.120652029116309
 40
0.2441615189900102
 40
0.372855153221861
 40
0.5081863407456407
 40
0.5081863407456407
 40
0.5081863407456407
 40
0.5081863407456407
 10
102.1453003209009
 20
392.4905103742327
 30
0.0
 10
102.1166550821012
 20
392.4619935863807
 30
0.0
 10
102.0586861964482
 20
392.4042846238682
 30
0.0
 10
101.9997284057199
 20
392.2931407765815
 30
0.0
 10
101.9616632358813
 20
392.1686065061621
 30
0.0
 10
101.9573014658632
 20
392.0803909606549
 30
0.0
 10
101.9550657611321
 20
392.0351743228162
 30
0.0
 11
102.1453003209009
 21
392.4905103742327
 31
0.0
 11
102.0640921787477
 21
392.4012794930433
 31
0.0
 11
102.004171284368
 21
392.2932791176273
 31
0.0
 11
101.9674403960638
 21
392.1699385571841
 31
0.0
 11
101.9550657611321
 21
392.0351743228162
 31
0.0
  0
SPLINE
  5
193
330
4E
100
AcDbEntity
  8
0
  6
Continuous
 62
     7
100
AcDbSpline
210
0.0
220
0.0
230
1.0
 70
     8
 71
     3
 72
    17
 73
    13
 74
    11
 42
0.000000001
 43
0.0000000001
 44
0.00000001
 40
0.0
 40
0.0
 40
0.0
 40
0.0
 40
0.2131868451801801
 40
0.4406714182616082
 40
0.6895572016061854
 40
0.958143723356788
 40
1.238214278488828
 40
1.518284833620963
 40
1.78687135537147
 40
2.035757138716045
 40
2.263241711797492
 40
2.476428556977718
 40
2.476428556977718
 40
2.476428556977718
 40
2.476428556977718
 10
103.3236769281753
 20
391.1298382713996
 30
0.0
 10
103.3717380370365
 20
391.1835251545341
 30
0.0
 10
103.4710835413537
 20
391.2944995283947
 30
0.0
 10
103.5239468140713
 20
391.5269182981137
 30
0.0
 10
103.5040082865589
 20
391.7766597331855
 30
0.0
 10
103.4098486123745
 20
392.0288740063104
 30
0.0
 10
103.2529604583566
 20
392.2591841020498
 30
0.0
 10
103.0474251733212
 20
392.4473645465067
 30
0.0
 10
102.8112491636638
 20
392.5765890653595
 30
0.0
 10
102.5669176079946
 20
392.6320004376154
 30
0.0
 10
102.3293307874428
 20
392.6128820480315
 30
0.0
 10
102.2053024274748
 20
392.5304089808797
 30
0.0
 10
102.1453003209009
 20
392.4905103742327
 30
0.0
 11
103.3236769281753
 21
391.1298382713996
 31
0.0
 11
103.4525159795192
 21
391.2996885934378
 31
0.0
 11
103.5110705982868
 21
391.51950804211
 31
0.0
 11
103.4936067862771
 21
391.7677803718508
 31
0.0
 11
103.4018363494767
 21
392.0202024526668
 31
0.0
 11
103.2447402567282
 21
392.2520651986152
 31
0.0
 11
103.0376979520549
 21
392.4406732562142
 31
0.0
 11
102.8009749464977
 21
392.5675627301428
 31
0.0
 11
102.5577438972279
 21
392.6203148970741
 31
0.0
 11
102.3318141210656
 21
392.5937636327567
 31
0.0
 11
102.1453003209009
 21
392.4905103742327
 31
0.0
  0
SPLINE
  5
194
330
4E
100
AcDbEntity
  8
0
  6
Continuous
 62
     7
100
AcDbSpline
210
0.0
220
0.0
230
1.0
 70
     8
 71
     3
 72
     9
 73
     5
 74
     3
 42
0.000000001
 43
0.0000000001
 44
0.00000001
 40
0.0
 40
0.0
 40
0.0
 40
0.0
 40
0.3746660846784766
 40
0.8454620908090504
 40
0.8454620908090504
 40
0.8454620908090504
 40
0.8454620908090504
 10
146.6500437095659
 20
405.337273437174
 30
0.0
 10
146.7183116016562
 20
405.2322739092861
 30
0.0
 10
146.8723631973765
 20
404.9953345978715
 30
0.0
 10
146.9719957468324
 20
404.7305950709456
 30
0.0
 10
147.0274761738158
 20
404.5831747224993
 30
0.0
 11
146.6500437095659
 21
405.337273437174
 31
0.0
 11
146.8441604874131
 21
405.0168154023112
 31
0.0
 11
147.0274761738158
 21
404.5831747224993
 31
0.0
  0
SPLINE
  5
195
330
4E
100
AcDbEntity
  8
0
  6
Continuous
 62
     7
100
AcDbSpline
210
0.0
220
0.0
230
1.0
 70
     8
 71
     3
 72
    11
 73
     7
 74
     5
 42
0.000000001
 43
0.0000000001
 44
0.00000001
 40
0.0
 40
0.0
 40
0.0
 40
0.0
 40
0.4062375130443496
 40
0.7728985974252878
 40
1.105393758849324
 40
1.417617069283162
 40
1.417617069283162
 40
1.417617069283162
 40
1.417617069283162
 10
147.4405041797757
 20
407.2808594474181
 30
0.0
 10
147.3606124679054
 20
407.3909163723679
 30
0.0
 10
147.2086122583355
 20
407.600308275577
 30
0.0
 10
147.0762141303516
 20
407.9475008289213
 30
0.0
 10
147.0315723930356
 20
408.2895547712047
 30
0.0
 10
147.0924986370019
 20
408.4977859644179
 30
0.0
 10
147.1220039155225
 20
408.5986278580306
 30
0.0
 11
147.4405041797757
 21
407.2808594474181
 31
0.0
 11
147.2172461189279
 21
407.6202482432319
 31
0.0
 11
147.0866657553752
 21
407.9628692018366
 31
0.0
 11
147.0544508724956
 21
408.2938000647646
 31
0.0
 11
147.1220039155225
 21
408.5986278580306
 31
0.0
  0
SPLINE
  5
196
330
4E
100
AcDbEntity
  8
0
  6
Continuous
 62
     7
100
AcDbSpline
210
0.0
220
0.0
230
1.0
 70
     8
 71
     3
 72
    13
 73
     9
 74
     7
 42
0.000000001
 43
0.0000000001
 44
0.00000001
 40
0.0
 40
0.0
 40
0.0
 40
0.0
 40
0.3151569400290771
 40
0.6511251238064735
 40
1.022067694221936
 40
1.433354045479788
 40
1.882810933620819
 40
2.362808643934265
 40
2.362808643934265
 40
2.362808643934265
 40
2.362808643934265
 10
152.0566208384641
 20
406.4716200509764
 30
0.0
 10
152.0862701833249
 20
406.5734285270637
 30
0.0
 10
152.1475267400685
 20
406.7837683580346
 30
0.0
 10
152.1014056573662
 20
407.1298251693626
 30
0.0
 10
151.9629766574122
 20
407.4782157525087
 30
0.0
 10
151.7293908389793
 20
407.8192748397089
 30
0.0
 10
151.4174575904863
 20
408.1428325722526
 30
0.0
 10
151.1642272738656
 20
408.3223236054336
 30
0.0
 10
151.0334516813981
 20
408.4150180526684
 30
0.0
 11
152.0566208384641
 21
406.4716200509764
 31
0.0
 11
152.1243345289252
 21
406.7794166651999
 31
0.0
 11
152.0904221989895
 21
407.1136689323653
 31
0.0
 11
151.95638759092
 21
407.4595491382873
 31
0.0
 11
151.7281772687693
 21
407.8017135911114
 31
0.0
 11
151.4159143456797
 21
408.1249833869583
 31
0.0
 11
151.0334516813981
 21
408.4150180526684
 31
0.0
  0
SPLINE
  5
197
330
4E
100
AcDbEntity
  8
0
  6
Continuous
 62
     7
100
AcDbSpline
210
0.0
220
0.0
230
1.0
 70
     8
 71
     3
 72
    15
 73
    11
 74
     9
 42
0.000000001
 43
0.0000000001
 44
0.00000001
 40
0.0
 40
0.0
 40
0.0
 40
0.0
 40
0.350714103770414
 40
0.7294603751392006
 40
1.153644340884849
 40
1.627537494456664
 40
2.144974888147649
 40
2.692801464912419
 40
3.253787376411866
 40
3.809093953689105
 40
3.809093953689105
 40
3.809093953689105
 40
3.809093953689105
 10
147.1220039155225
 20
408.5986278580306
 30
0.0
 10
147.178864793998
 20
408.7022923116227
 30
0.0
 10
147.2971313857284
 20
408.9179069889396
 30
0.0
 10
147.6211721934843
 20
409.1453514569999
 30
0.0
 10
148.0227715206437
 20
409.2931214964657
 30
0.0
 10
148.4947331808669
 20
409.3524296258406
 30
0.0
 10
149.0093127572675
 20
409.3242432337224
 30
0.0
 10
149.5405654483858
 20
409.2083496865548
 30
0.0
 10
150.0645702969587
 20
409.0175828014673
 30
0.0
 10
150.3855164390873
 20
408.827999975359
 30
0.0
 10
150.5451730725886
 20
408.7336908254216
 30
0.0
 11
147.1220039155225
 21
408.5986278580306
 31
0.0
 11
147.3126109314013
 21
408.8930244485476
 31
0.0
 11
147.6144204554796
 21
409.1218469873249
 31
0.0
 11
148.0109212608217
 21
409.2725757135755
 31
0.0
 11
148.4804196611852
 21
409.336964945394
 31
0.0
 11
148.9972296228276
 21
409.3114910367812
 31
0.0
 11
149.5330757475181
 21
409.1975485566173
 31
0.0
 11
150.0586415208365
 21
409.0013705520961
 31
0.0
 11
150.5451730725886
 21
408.7336908254216
 31
0.0
  0
SPLINE
  5
198
330
4E
100
AcDbEntity
  8
0
  6
Continuous
 62
     7
100
AcDbSpline
210
0.0
220
0.0
230
1.0
 70
     8
 71
     3
 72
    13
 73
     9
 74
     7
 42
0.000000001
 43
0.0000000001
 44
0.00000001
 40
0.0
 40
0.0
 40
0.0
 40
0.0
 40
0.2579701954325965
 40
0.5189776557227035
 40
0.7753231300240239
 40
1.020188955598059
 40
1.249110912060826
 40
1.461420263276865
 40
1.461420263276865
 40
1.461420263276865
 40
1.461420263276865
 10
146.2198852098685
 20
401.9213276604676
 30
0.0
 10
146.1506244166232
 20
401.9727742265425
 30
0.0
 10
146.0112873832058
 20
402.0762730866587
 30
0.0
 10
145.8469549183512
 20
402.278906798814
 30
0.0
 10
145.7241975285591
 20
402.5032130974523
 30
0.0
 10
145.6558886694705
 20
402.7381688857828
 30
0.0
 10
145.6395047190209
 20
402.9705498839138
 30
0.0
 10
145.6818906269713
 20
403.1124586733727
 30
0.0
 10
145.7022856612457
 20
403.1807415939088
 30
0.0
 11
146.2198852098685
 21
401.9213276604676
 31
0.0
 11
146.0193517101344
 21
402.0836080860598
 31
0.0
 11
145.8526693944261
 21
402.2844610175396
 31
0.0
 11
145.7311979846287
 21
402.5101991391452
 31
0.0
 11
145.6632148106426
 21
402.7454385110589
 31
0.0
 11
145.6533536569411
 21
402.9741479812934
 31
0.0
 11
145.7022856612457
 21
403.1807415939088
 31
0.0
  0
SPLINE
  5
199
330
4E
100
AcDbEntity
  8
0
  6
Continuous
 62
     7
100
AcDbSpline
210
0.0
220
0.0
230
1.0
 70
     8
 71
     3
 72
    19
 73
    15
 74
    13
 42
0.000000001
 43
0.0000000001
 44
0.00000001
 40
0.0
 40
0.0
 40
0.0
 40
0.0
 40
0.1036393784800849
 40
0.1936217599167189
 40
0.2836076993370347
 40
0.3898522543184605
 40
0.58815988233375
 40
0.7865804037015002
 40
0.8931099633996231
 40
0.9827021338481655
 40
1.088077727423092
 40
1.173000115162961
 40
1.351070312144018
 40
1.517579946773126
 40
1.517579946773126
 40
1.517579946773126
 40
1.517579946773126
 10
146.2198852098685
 20
401.9213276604676
 30
0.0
 10
146.1915553793921
 20
401.941162819814
 30
0.0
 10
146.1386288676568
 20
401.9782193872634
 30
0.0
 10
146.0689270085718
 20
402.0424201891512
 30
0.0
 10
146.0044500929855
 20
402.1128691271907
 30
0.0
 10
145.9255284644419
 20
402.2183567819357
 30
0.0
 10
145.8446671178568
 20
402.3662863063471
 30
0.0
 10
145.7896733596824
 20
402.5255549548024
 30
0.0
 10
145.7616896634503
 20
402.6541889898684
 30
0.0
 10
145.7477051140844
 20
402.7537771891451
 30
0.0
 10
145.7414989266292
 20
402.8470062653877
 30
0.0
 10
145.7427062218964
 20
402.9697592321469
 30
0.0
 10
145.7570951081238
 20
403.113318412592
 30
0.0
 10
145.7937175557166
 20
403.2224936706457
 30
0.0
 10
145.8114144497814
 20
403.2752498970648
 30
0.0
 11
146.2198852098685
 21
401.9213276604676
 31
0.0
 11
146.1364257942143
 21
401.982773954677
 31
0.0
 11
146.0698498378471
 21
402.0433088316518
 31
0.0
 11
146.0091543162029
 21
402.1097431845452
 31
0.0
 11
145.9453997872724
 21
402.1947329832029
 31
0.0
 11
145.8497893661129
 21
402.3684700367901
 31
0.0
 11
145.7845829200721
 21
402.5558702059517
 31
0.0
 11
145.7619085313753
 21
402.6599587225158
 31
0.0
 11
145.7494339154043
 21
402.7486781734847
 31
0.0
 11
145.742530481949
 21
402.8538273926923
 31
0.0
 11
145.7432297313757
 21
402.9387469013594
 31
0.0
 11
145.7641797824308
 21
403.1155804117167
 31
0.0
 11
145.8114144497814
 21
403.2752498970648
 31
0.0
  0
SPLINE
  5
19A
330
4E
100
AcDbEntity
  8
0
  6
Continuous
 62
     7
100
AcDbSpline
210
0.0
220
0.0
230
1.0
 70
     8
 71
     3
 72
    21
 73
    17
 74
    15
 42
0.000000001
 43
0.0000000001
 44
0.00000001
 40
0.0
 40
0.0
 40
0.0
 40
0.0
 40
0.1476818712425705
 40
0.2923581783831908
 40
0.3590577455732194
 40
0.4359754307797162
 40
0.5074752038468846
 40
0.5782485880923719
 40
0.6487975226544972
 40
0.718538831575053
 40
0.787455006542201
 40
0.8554853537475677
 40
0.9174272527516186
 40
0.9900327388280498
 40
1.02297210365689
 40
1.053610195766281
 40
1.053610195766281
 40
1.053610195766281
 40
1.053610195766281
 10
146.7081638186779
 20
401.6026548877153
 30
0.0
 10
146.7506936605497
 20
401.5776508105399
 30
0.0
 10
146.8348878004353
 20
401.5281515423235
 30
0.0
 10
146.9492420585722
 20
401.4899390587101
 30
0.0
 10
147.0431585251178
 20
401.4694998420376
 30
0.0
 10
147.1143506948302
 20
401.4600571525208
 30
0.0
 10
147.1873957085223
 20
401.4564453921369
 30
0.0
 10
147.2583796404041
 20
401.4585631793414
 30
0.0
 10
147.3283938302766
 20
401.4661678673321
 30
0.0
 10
147.3969937887935
 20
401.4790867005556
 30
0.0
 10
147.4635746521166
 20
401.4970626047075
 30
0.0
 10
147.5261068894802
 20
401.5192881180465
 30
0.0
 10
147.587907978604
 20
401.5466396221676
 30
0.0
 10
147.6370207755278
 20
401.5733491389205
 30
0.0
 10
147.6754726189629
 20
401.5975066534849
 30
0.0
 10
147.6928207050164
 20
401.6096841658403
 30
0.0
 10
147.7011807752033
 20
401.6155525370314
 30
0.0
 11
146.7081638186779
 21
401.6026548877153
 31
0.0
 11
146.8380287573151
 21
401.5323339606975
 31
0.0
 11
146.9747975607127
 21
401.4851584539808
 31
0.0
 11
147.0399902412883
 21
401.4710606992836
 31
0.0
 11
147.1162355020872
 21
401.4609122740235
 31
0.0
 11
147.1876481215615
 21
401.4573830595602
 31
0.0
 11
147.2583901450065
 21
401.459489730624
 31
0.0
 11
147.3285263805598
 21
401.4671094852644
 31
0.0
 11
147.3970618408937
 21
401.4800223039476
 31
0.0
 11
147.4635921330515
 21
401.4979989403271
 31
0.0
 11
147.5276887358343
 21
401.5207970487219
 31
0.0
 11
147.5843171805758
 21
401.5458972127461
 31
0.0
 11
147.648108836518
 21
401.5805697034845
 31
0.0
 11
147.6759604603467
 21
401.5981563155811
 31
0.0
 11
147.7011807752033
 21
401.6155525370314
 31
0.0
  0
SPLINE
  5
19B
330
4E
100
AcDbEntity
  8
0
  6
Continuous
 62
     7
100
AcDbSpline
210
0.0
220
0.0
230
1.0
 70
     8
 71
     3
 72
    11
 73
     7
 74
     5
 42
0.000000001
 43
0.0000000001
 44
0.00000001
 40
0.0
 40
0.0
 40
0.0
 40
0.0
 40
0.0968010049809774
 40
0.1968453069290869
 40
0.2936929423700476
 40
0.3935439329544649
 40
0.3935439329544649
 40
0.3935439329544649
 40
0.3935439329544649
 10
146.7856307734618
 20
403.9178175338323
 30
0.0
 10
146.8032188842141
 20
403.9448696824858
 30
0.0
 10
146.838984378895
 20
403.9998803645007
 30
0.0
 10
146.8921059162898
 20
404.0821121944876
 30
0.0
 10
146.9456347563522
 20
404.1652910202695
 30
0.0
 10
146.9809867968137
 20
404.2205102543556
 30
0.0
 10
146.9989327025952
 20
404.2485414416341
 30
0.0
 11
146.7856307734618
 21
403.9178175338323
 31
0.0
 11
146.8383561147677
 21
403.9989992617768
 31
0.0
 11
146.892659389622
 21
404.0830231672862
 31
0.0
 11
146.9450614768198
 21
404.1644693811427
 31
0.0
 11
146.9989327025952
 21
404.2485414416341
 31
0.0
  0
SPLINE
  5
19C
330
4E
100
AcDbEntity
  8
0
  6
Continuous
 62
     7
100
AcDbSpline
210
0.0
220
0.0
230
1.0
 70
     8
 71
     3
 72
    11
 73
     7
 74
     5
 42
0.000000001
 43
0.0000000001
 44
0.00000001
 40
0.0
 40
0.0
 40
0.0
 40
0.0
 40
0.0833921330827448
 40
0.1679394833618415
 40
0.2513204059000744
 40
0.3358484329883673
 40
0.3358484329883673
 40
0.3358484329883673
 40
0.3358484329883673
 10
146.9989327025952
 20
404.2485414416341
 30
0.0
 10
147.001306380607
 20
404.2762372873132
 30
0.0
 10
147.0060866037836
 20
404.3320126458497
 30
0.0
 10
147.0132141044539
 20
404.4154823587045
 30
0.0
 10
147.0203572312096
 20
404.4993307445752
 30
0.0
 10
147.0250924148149
 20
404.5550997303317
 30
0.0
 10
147.0274761738158
 20
404.5831747224993
 30
0.0
 11
146.9989327025952
 21
404.2485414416341
 31
0.0
 11
147.0060494355649
 21
404.3316293467234
 31
0.0
 11
147.0132443975945
 21
404.4158699958249
 31
0.0
 11
147.0203209085488
 21
404.4989500851148
 31
0.0
 11
147.0274761738158
 21
404.5831747224993
 31
0.0
  0
SPLINE
  5
19D
330
4E
100
AcDbEntity
  8
0
  6
Continuous
 62
     7
100
AcDbSpline
210
0.0
220
0.0
230
1.0
 70
     8
 71
     3
 72
    11
 73
     7
 74
     5
 42
0.000000001
 43
0.0000000001
 44
0.00000001
 40
0.0
 40
0.0
 40
0.0
 40
0.0
 40
0.4270942026682344
 40
0.8601381944805075
 40
1.290446003468133
 40
1.709525888214008
 40
1.709525888214008
 40
1.709525888214008
 40
1.709525888214008
 10
148.6198852098684
 20
403.9997886295503
 30
0.0
 10
148.4979296253582
 20
404.07357453522
 30
0.0
 10
148.2523195029159
 20
404.222174234506
 30
0.0
 10
147.8547765329908
 20
404.3894598804776
 30
0.0
 10
147.4458089959914
 20
404.5180710486181
 30
0.0
 10
147.1656861486314
 20
404.5616655925824
 30
0.0
 10
147.0274761738158
 20
404.5831747224993
 30
0.0
 11
148.6198852098684
 21
403.9997886295503
 31
0.0
 11
148.2492428391602
 21
404.2120000604114
 31
0.0
 11
147.8515804372659
 21
404.3834401781652
 31
0.0
 11
147.4398535850715
 21
404.5085233932524
 31
0.0
 11
147.0274761738158
 21
404.5831747224993
 31
0.0
  0
SPLINE
  5
19E
330
4E
100
AcDbEntity
  8
0
  6
Continuous
 62
     7
100
AcDbSpline
210
0.0
220
0.0
230
1.0
 70
     8
 71
     3
 72
    13
 73
     9
 74
     7
 42
0.000000001
 43
0.0000000001
 44
0.00000001
 40
0.0
 40
0.0
 40
0.0
 40
0.0
 40
0.4792526584722364
 40
0.8791413232903122
 40
1.209137668079895
 40
1.491011271383274
 40
1.644362625417624
 40
1.789722433855309
 40
1.789722433855309
 40
1.789722433855309
 40
1.789722433855309
 10
146.7856307734618
 20
403.9178175338323
 30
0.0
 10
146.8358073569731
 20
403.7660970623866
 30
0.0
 10
146.9278513052838
 20
403.4877809507591
 30
0.0
 10
147.0854750884304
 20
403.116268867894
 30
0.0
 10
147.2466316328049
 20
402.8191241831501
 30
0.0
 10
147.3996359609695
 20
402.6137377352264
 30
0.0
 10
147.5368338534001
 20
402.4761696125198
 30
0.0
 10
147.6180061643313
 20
402.4182457741956
 30
0.0
 10
147.6575065056296
 20
402.3900586911774
 30
0.0
 11
146.7856307734618
 21
403.9178175338323
 31
0.0
 11
146.9428651795753
 21
403.4650919626744
 31
0.0
 11
147.1009230631162
 21
403.0977656095042
 31
0.0
 11
147.2615340090759
 21
402.8094919354739
 31
0.0
 11
147.4319717828426
 21
402.5849842621391
 31
0.0
 11
147.5415117789919
 21
402.4776640462337
 31
0.0
 11
147.6575065056296
 21
402.3900586911774
 31
0.0
  0
SPLINE
  5
19F
330
4E
100
AcDbEntity
  8
0
  6
Continuous
 62
     7
100
AcDbSpline
210
0.0
220
0.0
230
1.0
 70
     8
 71
     3
 72
    11
 73
     7
 74
     5
 42
0.000000001
 43
0.0000000001
 44
0.00000001
 40
0.0
 40
0.0
 40
0.0
 40
0.0
 40
0.2272629368298563
 40
0.4687130729351781
 40
0.7318705772231907
 40
1.015850484854766
 40
1.015850484854766
 40
1.015850484854766
 40
1.015850484854766
 10
147.6590156221127
 20
401.5750185872143
 30
0.0
 10
147.5953272048107
 20
401.5321364700152
 30
0.0
 10
147.4639745268341
 20
401.4436952736543
 30
0.0
 10
147.2133989776739
 20
401.4180830968526
 30
0.0
 10
146.9512287184558
 20
401.4658849484553
 30
0.0
 10
146.7912153259253
 20
401.5559227146401
 30
0.0
 10
146.7081638186779
 20
401.6026548877153
 30
0.0
 11
147.6590156221127
 21
401.5750185872143
 31
0.0
 11
147.4611035031766
 21
401.4633080821038
 31
0.0
 11
147.2219773087473
 21
401.4298890258464
 31
0.0
 11
146.9632140742965
 21
401.477779129877
 31
0.0
 11
146.7081638186779
 21
401.6026548877153
 31
0.0
  0
SPLINE
  5
1A0
330
4E
100
AcDbEntity
  8
0
  6
Continuous
 62
     7
100
AcDbSpline
210
0.0
220
0.0
230
1.0
 70
     8
 71
     3
 72
     9
 73
     5
 74
     3
 42
0.000000001
 43
0.0000000001
 44
0.00000001
 40
0.0
 40
0.0
 40
0.0
 40
0.0
 40
0.1403783455487624
 40
0.2773753865573448
 40
0.2773753865573448
 40
0.2773753865573448
 40
0.2773753865573448
 10
147.8181596327542
 20
401.7998262453104
 30
0.0
 10
147.7980400123209
 20
401.7571242741147
 30
0.0
 10
147.7582853776321
 20
401.6727489080367
 30
0.0
 10
147.6918355299327
 20
401.6073295282426
 30
0.0
 10
147.6590156221127
 20
401.5750185872143
 30
0.0
 11
147.8181596327542
 21
401.7998262453104
 31
0.0
 11
147.7509632555815
 21
401.6765755774612
 31
0.0
 11
147.6590156221127
 21
401.5750185872143
 31
0.0
  0
SPLINE
  5
1A1
330
4E
100
AcDbEntity
  8
0
  6
Continuous
 62
     7
100
AcDbSpline
210
0.0
220
0.0
230
1.0
 70
     8
 71
     3
 72
    13
 73
     9
 74
     7
 42
0.000000001
 43
0.0000000001
 44
0.00000001
 40
0.0
 40
0.0
 40
0.0
 40
0.0
 40
0.5662664598441924
 40
1.102778783763874
 40
1.594556458703068
 40
2.034028875733735
 40
2.424940346971653
 40
2.785576587908471
 40
2.785576587908471
 40
2.785576587908471
 40
2.785576587908471
 10
149.5563781512846
 20
405.8999440988197
 30
0.0
 10
149.7388490237431
 20
405.8501194447142
 30
0.0
 10
150.0942029472697
 20
405.7530881548433
 30
0.0
 10
150.6277620071608
 20
405.7165532746815
 30
0.0
 10
151.1180698204008
 20
405.7674962110136
 30
0.0
 10
151.5366434575438
 20
405.9132213771259
 30
0.0
 10
151.8750327509667
 20
406.1433238533454
 30
0.0
 10
151.997739175148
 20
406.3651668791035
 30
0.0
 10
152.0566208384641
 20
406.4716200509764
 30
0.0
 11
149.5563781512846
 21
405.8999440988197
 31
0.0
 11
150.1073898970315
 21
405.7693923747616
 31
0.0
 11
150.6425735729814
 21
405.7316576940772
 31
0.0
 11
151.1310059139172
 21
405.788921390458
 31
0.0
 11
151.5444659516633
 21
405.9378737494104
 31
0.0
 11
151.8590630094367
 21
406.1699092523976
 31
0.0
 11
152.0566208384641
 21
406.4716200509764
 31
0.0
  0
SPLINE
  5
1A2
330
4E
100
AcDbEntity
  8
0
  6
Continuous
 62
     7
100
AcDbSpline
210
0.0
220
0.0
230
1.0
 70
     8
 71
     3
 72
     9
 73
     5
 74
     3
 42
0.000000001
 43
0.0000000001
 44
0.00000001
 40
0.0
 40
0.0
 40
0.0
 40
0.0
 40
0.1956662673146163
 40
0.3815314512155381
 40
0.3815314512155381
 40
0.3815314512155381
 40
0.3815314512155381
 10
105.072757214754
 20
394.8511305520039
 30
0.0
 10
105.0066527712928
 20
394.8443837380902
 30
0.0
 10
104.8777551153548
 20
394.8312280449479
 30
0.0
 10
104.7718786365568
 20
394.7567891313293
 30
0.0
 10
104.7203003209008
 20
394.7205257889779
 30
0.0
 11
105.072757214754
 21
394.8511305520039
 31
0.0
 11
104.8804986717599
 21
394.8147720388046
 31
0.0
 11
104.7203003209008
 21
394.7205257889779
 31
0.0
  0
SPLINE
  5
1A3
330
4E
100
AcDbEntity
  8
0
  6
Continuous
 62
     7
100
AcDbSpline
210
0.0
220
0.0
230
1.0
 70
     8
 71
     3
 72
     9
 73
     5
 74
     3
 42
0.000000001
 43
0.0000000001
 44
0.00000001
 40
0.0
 40
0.0
 40
0.0
 40
0.0
 40
0.1481609154233042
 40
0.2908599647855435
 40
0.2908599647855435
 40
0.2908599647855435
 40
0.2908599647855435
 10
105.0727572147542
 20
394.2647920411051
 30
0.0
 10
105.0303083915359
 20
394.2903622278218
 30
0.0
 10
104.9469755873348
 20
394.3405599534009
 30
0.0
 10
104.8547402727366
 20
394.3714465897404
 30
0.0
 10
104.8094886245376
 20
394.3865998990751
 30
0.0
 11
105.0727572147542
 21
394.2647920411051
 31
0.0
 11
104.9431007405715
 21
394.3364918024591
 31
0.0
 11
104.8094886245376
 21
394.3865998990751
 31
0.0
  0
ENDBLK
  5
50
330
4E
100
AcDbEntity
  8
0
100
AcDbBlockEnd
  0
BLOCK
  5
53
330
51
100
AcDbEntity
  8
0
100
AcDbBlockBegin
  2
Gen1
 70
     0
 10
128.9999999999996
 20
401.0
 30
0.0
  3
Gen1
  1

  0
INSERT
  5
52
330
51
100
AcDbEntity
  8
0
100
AcDbBlockReference
  2
STN-2_5-SELECT__2
 10
101.9550657611278
 20
376.5575060312932
 30
0.0
  0
MTEXT
  5
1A4
330
51
100
AcDbEntity
  8
1
 62
     6
100
AcDbMText
 10
128.9310346853459
 20
363.8651704293466
 30
0.0
 40
5.0
 41
0.0
 71
     2
 72
     1
  1
 
  7
CONVERTER_11
 73
     1
 44
1.32052821128451
  0
ENDBLK
  5
54
330
51
100
AcDbEntity
  8
0
100
AcDbBlockEnd
  0
BLOCK
  5
56
330
55
100
AcDbEntity
  8
0
100
AcDbBlockBegin
  2
STN-2_5-SELECT__3
 70
     0
 10
100.8730041553648
 20
443.5012995829246
 30
0.0
  3
STN-2_5-SELECT__3
  1

  0
LINE
  5
1A5
330
55
100
AcDbEntity
  8
0
  6
Continuous
 62
     7
100
AcDbLine
 10
146.8819478084967
 20
443.5012995829248
 30
0.0
 11
160.3230041553659
 21
443.5012995829246
 31
0.0
  0
LINE
  5
1A6
330
55
100
AcDbEntity
  8
0
  6
Continuous
 62
     7
100
AcDbLine
 10
100.8730041553648
 20
470.2093557582032
 30
0.0
 11
100.8730041553648
 21
466.7012995829234
 31
0.0
  0
LINE
  5
1A7
330
55
100
AcDbEntity
  8
0
  6
Continuous
 62
     7
100
AcDbLine
 10
156.8230041553645
 20
461.5012995829247
 30
0.0
 11
148.8230041553642
 21
461.5012995829247
 31
0.0
  0
LINE
  5
1A8
330
55
100
AcDbEntity
  8
0
  6
Continuous
 62
     7
100
AcDbLine
 10
159.3230041553635
 20
475.1012995829248
 30
0.0
 11
148.8230041553642
 21
475.1012995829246
 31
0.0
  0
LINE
  5
1A9
330
55
100
AcDbEntity
  8
0
  6
Continuous
 62
     7
100
AcDbLine
 10
148.8230041553642
 20
461.5012995829247
 30
0.0
 11
148.8230041553642
 21
475.1012995829246
 31
0.0
  0
LINE
  5
1AA
330
55
100
AcDbEntity
  8
0
  6
Continuous
 62
     7
100
AcDbLine
 10
144.140677894936
 20
456.1012995829247
 30
0.0
 11
144.0667972463071
 21
456.1012995829247
 31
0.0
  0
LINE
  5
1AB
330
55
100
AcDbEntity
  8
0
  6
Continuous
 62
     7
100
AcDbLine
 10
156.7230041553655
 20
456.1012995829247
 30
0.0
 11
160.3230041553647
 21
456.1012995829247
 31
0.0
  0
LINE
  5
1AC
330
55
100
AcDbEntity
  8
0
  6
Continuous
 62
     7
100
AcDbLine
 10
100.8730041553648
 20
454.7012995829234
 30
0.0
 11
100.8730041553648
 21
452.4133972510832
 31
0.0
  0
LINE
  5
1AD
330
55
100
AcDbEntity
  8
0
  6
Continuous
 62
     7
100
AcDbLine
 10
160.3230041553647
 20
459.0505731991905
 30
0.0
 11
156.8230041553645
 21
461.5012995829247
 31
0.0
  0
LINE
  5
1AE
330
55
100
AcDbEntity
  8
0
  6
Continuous
 62
     7
100
AcDbLine
 10
113.1230041553644
 20
447.6012995829141
 30
0.0
 11
113.1230041553641
 21
448.0529656327644
 31
0.0
  0
LINE
  5
1AF
330
55
100
AcDbEntity
  8
0
  6
Continuous
 62
     7
100
AcDbLine
 10
145.2230041553642
 20
448.0529656327644
 30
0.0
 11
145.223004155364
 21
447.6012995829238
 31
0.0
  0
LINE
  5
1B0
330
55
100
AcDbEntity
  8
0
  6
Continuous
 62
     7
100
AcDbLine
 10
146.5230041553636
 20
449.501299582933
 30
0.0
 11
146.5230041553636
 21
448.4012995829248
 31
0.0
  0
LINE
  5
1B1
330
55
100
AcDbEntity
  8
0
  6
Continuous
 62
     7
100
AcDbLine
 10
159.4230041553647
 20
447.5012995829245
 30
0.0
 11
156.7230041553655
 21
447.5012995829245
 31
0.0
  0
LINE
  5
1B2
330
55
100
AcDbEntity
  8
0
  6
Continuous
 62
     7
100
AcDbLine
 10
109.1510459961299
 20
443.5012995829246
 30
0.0
 11
111.4640605022441
 21
443.5012995829247
 31
0.0
  0
LINE
  5
1B3
330
55
100
AcDbEntity
  8
0
  6
Continuous
 62
     7
100
AcDbLine
 10
146.5230041553636
 20
448.4012995829248
 30
0.0
 11
145.2230041553642
 21
448.0529656327644
 31
0.0
  0
LINE
  5
1B4
330
55
100
AcDbEntity
  8
0
  6
Continuous
 62
     7
100
AcDbLine
 10
113.1230041553641
 20
448.0529656327644
 30
0.0
 11
111.823004155364
 21
448.4012995829248
 31
0.0
  0
LINE
  5
1B5
330
55
100
AcDbEntity
  8
0
  6
Continuous
 62
     7
100
AcDbLine
 10
101.2092823079796
 20
470.3116806951127
 30
0.0
 11
100.8730041553648
 21
470.2093557582032
 31
0.0
  0
LINE
  5
1B6
330
55
100
AcDbEntity
  8
0
  6
Continuous
 62
     7
100
AcDbLine
 10
101.5517137822908
 20
470.4034349321163
 30
0.0
 11
101.2092823079796
 21
470.3116806951127
 31
0.0
  0
LINE
  5
1B7
330
55
100
AcDbEntity
  8
0
  6
Continuous
 62
     7
100
AcDbLine
 10
101.4812353838147
 20
470.1404059681688
 30
0.0
 11
102.5147760179439
 21
469.8634695899086
 31
0.0
  0
LINE
  5
1B8
330
55
100
AcDbEntity
  8
0
  6
Continuous
 62
     7
100
AcDbLine
 10
101.5517137822908
 20
470.4034349321163
 30
0.0
 11
101.4812353838147
 21
470.1404059681688
 31
0.0
  0
LINE
  5
1B9
330
55
100
AcDbEntity
  8
0
  6
Continuous
 62
     7
100
AcDbLine
 10
114.4639269761088
 20
481.6010713821397
 30
0.0
 11
102.8730041553643
 21
477.3823204877101
 31
0.0
  0
LINE
  5
1BA
330
55
100
AcDbEntity
  8
0
  6
Continuous
 62
     7
100
AcDbLine
 10
103.1182658440881
 20
476.2498868194458
 30
0.0
 11
103.0477874456119
 21
475.9868578554959
 31
0.0
  0
LINE
  5
1BB
330
55
100
AcDbEntity
  8
0
  6
Continuous
 62
     7
100
AcDbLine
 10
104.1518064782183
 20
475.972950441186
 30
0.0
 11
103.1182658440881
 21
476.2498868194458
 31
0.0
  0
LINE
  5
1BC
330
55
100
AcDbEntity
  8
0
  6
Continuous
 62
     7
100
AcDbLine
 10
102.8730041553643
 20
477.3823204877101
 30
0.0
 11
102.6150442577197
 21
476.4196010433869
 31
0.0
  0
LINE
  5
1BD
330
55
100
AcDbEntity
  8
0
  6
Continuous
 62
     7
100
AcDbLine
 10
103.0477874456119
 20
475.9868578554959
 30
0.0
 11
102.6150442577197
 21
476.4196010433869
 31
0.0
  0
LINE
  5
1BE
330
55
100
AcDbEntity
  8
0
  6
Continuous
 62
     7
100
AcDbLine
 10
123.8059771787514
 20
485.0012995829247
 30
0.0
 11
123.3318057108842
 21
484.828715282684
 31
0.0
  0
LINE
  5
1BF
330
55
100
AcDbEntity
  8
0
  6
Continuous
 62
     7
100
AcDbLine
 10
123.3318057108842
 20
484.828715282684
 30
0.0
 11
123.2380710702837
 21
482.9854964502109
 31
0.0
  0
LINE
  5
1C0
330
55
100
AcDbEntity
  8
0
  6
Continuous
 62
     7
100
AcDbLine
 10
125.7633497803924
 20
485.0012995829247
 30
0.0
 11
123.8059771787514
 21
485.0012995829247
 31
0.0
  0
LINE
  5
1C1
330
55
100
AcDbEntity
  8
0
  6
Continuous
 62
     7
100
AcDbLine
 10
125.7633497803924
 20
485.0012995829247
 30
0.0
 11
126.6884026224471
 21
482.8962995829288
 31
0.0
  0
LINE
  5
1C2
330
55
100
AcDbEntity
  8
0
  6
Continuous
 62
     7
100
AcDbLine
 10
131.9576056882779
 20
482.896299582926
 30
0.0
 11
132.882658530339
 21
485.0012995829239
 31
0.0
  0
LINE
  5
1C3
330
55
100
AcDbEntity
  8
0
  6
Continuous
 62
     7
100
AcDbLine
 10
126.6884026224471
 20
482.8962995829288
 30
0.0
 11
126.1605041553635
 21
482.8962995829289
 31
0.0
  0
LINE
  5
1C4
330
55
100
AcDbEntity
  8
0
  6
Continuous
 62
     7
100
AcDbLine
 10
126.1605041553635
 20
482.8962995829289
 30
0.0
 11
126.1605041553635
 21
481.8262995829268
 31
0.0
  0
LINE
  5
1C5
330
55
100
AcDbEntity
  8
0
  6
Continuous
 62
     7
100
AcDbLine
 10
132.4855041553637
 20
481.826299582927
 30
0.0
 11
132.4855041553637
 21
482.8962995829258
 31
0.0
  0
LINE
  5
1C6
330
55
100
AcDbEntity
  8
0
  6
Continuous
 62
     7
100
AcDbLine
 10
132.4855041553637
 20
482.8962995829258
 30
0.0
 11
131.9576056882779
 21
482.896299582926
 31
0.0
  0
LINE
  5
1C7
330
55
100
AcDbEntity
  8
0
  6
Continuous
 62
     7
100
AcDbLine
 10
159.3230041553635
 20
482.4512995829249
 30
0.0
 11
149.5230041553641
 21
482.4512995829248
 31
0.0
  0
LINE
  5
1C8
330
55
100
AcDbEntity
  8
0
  6
Continuous
 62
     7
100
AcDbLine
 10
149.5230041553641
 20
482.4512995829248
 30
0.0
 11
145.8812267381728
 21
485.0012995829239
 31
0.0
  0
LINE
  5
1C9
330
55
100
AcDbEntity
  8
0
  6
Continuous
 62
     7
100
AcDbLine
 10
145.8812267381728
 20
485.0012995829239
 30
0.0
 11
132.882658530339
 21
485.0012995829239
 31
0.0
  0
LINE
  5
1CA
330
55
100
AcDbEntity
  8
0
  6
Continuous
 62
     7
100
AcDbLine
 10
132.4855041553637
 20
481.826299582927
 30
0.0
 11
126.1605041553635
 21
481.8262995829268
 31
0.0
  0
LINE
  5
1CB
330
55
100
AcDbEntity
  8
0
  6
Continuous
 62
     7
100
AcDbLine
 10
117.1912167203082
 20
476.2086570343881
 30
0.0
 11
124.7087576865427
 21
478.9448181809843
 31
0.0
  0
LINE
  5
1CC
330
55
100
AcDbEntity
  8
0
  6
Continuous
 62
     7
100
AcDbLine
 10
123.2380710702837
 20
482.9854964502109
 30
0.0
 11
124.7087576865427
 21
478.9448181809843
 31
0.0
  0
LINE
  5
1CD
330
55
100
AcDbEntity
  8
0
  6
Continuous
 62
     7
100
AcDbLine
 10
117.1912167203082
 20
476.2086570343881
 30
0.0
 11
115.7205301040052
 21
480.2493353037748
 31
0.0
  0
LINE
  5
1CE
330
55
100
AcDbEntity
  8
0
  6
Continuous
 62
     7
100
AcDbLine
 10
115.7205301040052
 20
480.2493353037748
 30
0.0
 11
114.4639269761088
 21
481.6010713821397
 31
0.0
  0
LINE
  5
1CF
330
55
100
AcDbEntity
  8
0
  6
Continuous
 62
     7
100
AcDbLine
 10
102.5147760179439
 20
469.8634695899086
 30
0.0
 11
104.1518064782183
 21
475.972950441186
 31
0.0
  0
LINE
  5
1D0
330
55
100
AcDbEntity
  8
0
  6
Continuous
 62
     7
100
AcDbLine
 10
146.5230041553636
 20
449.501299582933
 30
0.0
 11
144.9134185559672
 21
455.5083548190069
 31
0.0
  0
LINE
  5
1D1
330
55
100
AcDbEntity
  8
0
  6
Continuous
 62
     7
100
AcDbLine
 10
144.9230041553641
 20
449.5012995829247
 30
0.0
 11
143.3906491679049
 21
455.2201262513529
 31
0.0
  0
LINE
  5
1D2
330
55
100
AcDbEntity
  8
0
  6
Continuous
 62
     7
100
AcDbLine
 10
156.7230041553655
 20
447.5012995829245
 30
0.0
 11
156.7230041553655
 21
456.1012995829247
 31
0.0
  0
LINE
  5
1D3
330
55
100
AcDbEntity
  8
0
  6
Continuous
 62
     7
100
AcDbLine
 10
111.823004155364
 20
448.4012995829248
 30
0.0
 11
111.8230041553639
 21
449.5012995829247
 31
0.0
  0
LINE
  5
1D4
330
55
100
AcDbEntity
  8
0
  6
Continuous
 62
     7
100
AcDbLine
 10
100.8730041553648
 20
452.4133972510832
 30
0.0
 11
109.1510459961299
 21
443.5012995829246
 31
0.0
  0
LINE
  5
1D5
330
55
100
AcDbEntity
  8
0
  6
Continuous
 62
     7
100
AcDbLine
 10
160.3230041553659
 20
443.5012995829246
 30
0.0
 11
160.3230041553647
 21
446.6012995829248
 31
0.0
  0
LINE
  5
1D6
330
55
100
AcDbEntity
  8
0
  6
Continuous
 62
     7
100
AcDbLine
 10
160.3230041553647
 20
459.0505731991905
 30
0.0
 11
160.3230041553647
 21
456.1012995829247
 31
0.0
  0
LINE
  5
1D7
330
55
100
AcDbEntity
  8
0
  6
Continuous
 62
     7
100
AcDbLine
 10
159.3230041553635
 20
475.1012995829248
 30
0.0
 11
159.3230041553635
 21
482.4512995829249
 31
0.0
  0
LINE
  5
1D8
330
55
100
AcDbEntity
  8
0
  6
Continuous
 62
     7
100
AcDbLine
 10
111.8230041553639
 20
449.5012995829247
 30
0.0
 11
144.9230041553641
 21
449.5012995829247
 31
0.0
  0
ARC
  5
1D9
330
55
100
AcDbEntity
  8
0
  6
Continuous
 62
     7
100
AcDbCircle
 10
159.4230041553647
 20
446.6012995829245
 30
0.0
 40
0.9000000000000057
100
AcDbArc
 50
0.00000000001809
 51
90.0
  0
ARC
  5
1DA
330
55
100
AcDbEntity
  8
0
  6
Continuous
 62
     7
100
AcDbCircle
 10
154.6169768347404
 20
449.0166713712223
 30
0.0
 40
9.499999999999016
100
AcDbArc
 50
188.5681975617461
 51
215.4903233115785
  0
ARC
  5
1DB
330
55
100
AcDbEntity
  8
0
  6
Continuous
 62
     7
100
AcDbCircle
 10
144.140677894936
 20
455.3012995829247
 30
0.0
 40
0.8000000000000086
100
AcDbArc
 50
15.00000000001538
 51
90.0
  0
ARC
  5
1DC
330
55
100
AcDbEntity
  8
0
  6
Continuous
 62
     7
100
AcDbCircle
 10
144.0667972463072
 20
455.4012995829247
 30
0.0
 40
0.6999999999999886
100
AcDbArc
 50
90.00000000000931
 51
195.000000000005
  0
ARC
  5
1DD
330
55
100
AcDbEntity
  8
0
  6
Continuous
 62
     7
100
AcDbCircle
 10
87.12527707049726
 20
460.7012995829234
 30
0.0
 40
15.00000000000001
100
AcDbArc
 50
336.4218215217982
 51
23.57817847820181
  0
ARC
  5
1DE
330
55
100
AcDbEntity
  8
0
  6
Continuous
 62
     7
100
AcDbCircle
 10
103.7290314759866
 20
449.0166713712029
 30
0.0
 40
9.499999999999018
100
AcDbArc
 50
324.5096766885644
 51
351.4318024383131
  0
ENDBLK
  5
57
330
55
100
AcDbEntity
  8
0
100
AcDbBlockEnd
  0
BLOCK
  5
5A
330
58
100
AcDbEntity
  8
0
100
AcDbBlockBegin
  2
Rckans1
 70
     0
 10
130.580881
 20
464.2512999999998
 30
0.0
  3
Rckans1
  1

  0
INSERT
  5
59
330
58
100
AcDbEntity
  8
0
100
AcDbBlockReference
  2
STN-2_5-SELECT__3
 10
100.8730041553648
 20
443.5012995829246
 30
0.0
  0
MTEXT
  5
1DF
330
58
100
AcDbEntity
  8
1
 62
     6
100
AcDbMText
 10
130.6715465532387
 20
431.5750001440288
 30
0.0
 40
5.0
 41
0.0
 71
     2
 72
     1
  1
 
  7
CONVERTER_11
 73
     1
 44
1.32052821128451
  0
ENDBLK
  5
5B
330
58
100
AcDbEntity
  8
0
100
AcDbBlockEnd
  0
BLOCK
  5
5D
330
5C
100
AcDbEntity
  8
0
100
AcDbBlockBegin
  2
STN-2_5-SELECT__4
 70
     0
 10
72.21544104768383
 20
443.5012995829249
 30
0.0
  3
STN-2_5-SELECT__4
  1

  0
LINE
  5
1E0
330
5C
100
AcDbEntity
  8
0
  6
Continuous
 62
     7
100
AcDbLine
 10
77.36544104768491
 20
447.5012995829247
 30
0.0
 11
77.36544104768491
 21
456.1012995829249
 31
0.0
  0
LINE
  5
1E1
330
5C
100
AcDbEntity
  8
0
  6
Continuous
 62
     7
100
AcDbLine
 10
77.36544104768491
 20
485.0012995829249
 30
0.0
 11
77.36544104768491
 21
482.4512995829251
 31
0.0
  0
LINE
  5
1E2
330
5C
100
AcDbEntity
  8
0
  6
Continuous
 62
     7
100
AcDbLine
 10
77.36544104768491
 20
461.5012995829249
 30
0.0
 11
77.36544104768491
 21
475.1012995829249
 31
0.0
  0
LINE
  5
1E3
330
5C
100
AcDbEntity
  8
0
  6
Continuous
 62
     7
100
AcDbLine
 10
77.36544104768491
 20
475.1012995829249
 30
0.0
 11
77.36544104768491
 21
482.4512995829251
 31
0.0
  0
LINE
  5
1E4
330
5C
100
AcDbEntity
  8
0
  6
Continuous
 62
     7
100
AcDbLine
 10
72.21544104768482
 20
447.5012995829247
 30
0.0
 11
72.21544104768451
 21
456.1012995829249
 31
0.0
  0
LINE
  5
1E5
330
5C
100
AcDbEntity
  8
0
  6
Continuous
 62
     7
100
AcDbLine
 10
72.21544104768513
 20
485.0012995829249
 30
0.0
 11
72.21544104768383
 21
482.4512995829251
 31
0.0
  0
LINE
  5
1E6
330
5C
100
AcDbEntity
  8
0
  6
Continuous
 62
     7
100
AcDbLine
 10
72.21544104768442
 20
459.0505731991908
 30
0.0
 11
72.21544104768451
 21
456.1012995829249
 31
0.0
  0
LINE
  5
1E7
330
5C
100
AcDbEntity
  8
0
  6
Continuous
 62
     7
100
AcDbLine
 10
72.21544104768402
 20
475.1012995829249
 30
0.0
 11
72.21544104768383
 21
482.4512995829251
 31
0.0
  0
LINE
  5
1E8
330
5C
100
AcDbEntity
  8
0
  6
Continuous
 62
     7
100
AcDbLine
 10
72.21544104768402
 20
475.1012995829249
 30
0.0
 11
72.21544104768451
 21
461.5012995829249
 31
0.0
  0
LINE
  5
1E9
330
5C
100
AcDbEntity
  8
0
  6
Continuous
 62
     7
100
AcDbLine
 10
72.21544104768442
 20
459.0505731991908
 30
0.0
 11
72.21544104768451
 21
461.5012995829249
 31
0.0
  0
LINE
  5
1EA
330
5C
100
AcDbEntity
  8
0
  6
Continuous
 62
     7
100
AcDbLine
 10
77.36544104768491
 20
459.0505731991908
 30
0.0
 11
77.36544104768491
 21
456.1012995829249
 31
0.0
  0
LINE
  5
1EB
330
5C
100
AcDbEntity
  8
0
  6
Continuous
 62
     7
100
AcDbLine
 10
77.36544104768491
 20
459.0505731991908
 30
0.0
 11
77.36544104768491
 21
461.5012995829249
 31
0.0
  0
LINE
  5
1EC
330
5C
100
AcDbEntity
  8
0
  6
Continuous
 62
     7
100
AcDbLine
 10
72.21544104768451
 20
461.5012995829249
 30
0.0
 11
77.36544104768491
 21
461.5012995829249
 31
0.0
  0
LINE
  5
1ED
330
5C
100
AcDbEntity
  8
0
  6
Continuous
 62
     7
100
AcDbLine
 10
72.21544104768442
 20
459.0505731991908
 30
0.0
 11
77.36544104768491
 21
459.0505731991908
 31
0.0
  0
LINE
  5
1EE
330
5C
100
AcDbEntity
  8
0
  6
Continuous
 62
     7
100
AcDbLine
 10
77.36544104768491
 20
456.1012995829249
 30
0.0
 11
72.21544104768451
 21
456.1012995829249
 31
0.0
  0
LINE
  5
1EF
330
5C
100
AcDbEntity
  8
0
  6
Continuous
 62
     7
100
AcDbLine
 10
77.36544104768491
 20
475.1012995829249
 30
0.0
 11
72.21544104768402
 21
475.1012995829249
 31
0.0
  0
LINE
  5
1F0
330
5C
100
AcDbEntity
  8
0
  6
Continuous
 62
     7
100
AcDbLine
 10
72.21544104768383
 20
482.4512995829251
 30
0.0
 11
77.36544104768491
 21
482.4512995829251
 31
0.0
  0
LINE
  5
1F1
330
5C
100
AcDbEntity
  8
0
  6
Continuous
 62
     7
100
AcDbLine
 10
72.21544104768513
 20
485.0012995829249
 30
0.0
 11
77.36544104768491
 21
485.0012995829249
 31
0.0
  0
LINE
  5
1F2
330
5C
100
AcDbEntity
  8
0
  6
Continuous
 62
     7
100
AcDbLine
 10
72.21544104768701
 20
443.5012995829249
 30
0.0
 11
72.21544104768482
 21
446.601299582925
 31
0.0
  0
LINE
  5
1F3
330
5C
100
AcDbEntity
  8
0
  6
Continuous
 62
     7
100
AcDbLine
 10
77.36544104768491
 20
443.5012995829249
 30
0.0
 11
77.36544104768491
 21
446.601299582925
 31
0.0
  0
LINE
  5
1F4
330
5C
100
AcDbEntity
  8
0
  6
Continuous
 62
     7
100
AcDbLine
 10
72.21544104768482
 20
447.5012995829247
 30
0.0
 11
72.21544104768482
 21
446.601299582925
 31
0.0
  0
LINE
  5
1F5
330
5C
100
AcDbEntity
  8
0
  6
Continuous
 62
     7
100
AcDbLine
 10
72.21544104768482
 20
447.5012995829247
 30
0.0
 11
73.21544104768493
 21
447.5012995829247
 31
0.0
  0
LINE
  5
1F6
330
5C
100
AcDbEntity
  8
0
  6
Continuous
 62
     7
100
AcDbLine
 10
73.21544104768493
 20
447.5012995829247
 30
0.0
 11
77.36544104768491
 21
447.5012995829247
 31
0.0
  0
LINE
  5
1F7
330
5C
100
AcDbEntity
  8
0
  6
Continuous
 62
     7
100
AcDbLine
 10
77.36544104768491
 20
447.5012995829247
 30
0.0
 11
77.36544104768491
 21
446.601299582925
 31
0.0
  0
LINE
  5
1F8
330
5C
100
AcDbEntity
  8
0
  6
Continuous
 62
     2
100
AcDbLine
 10
72.21544104768482
 20
446.601299582925
 30
0.0
 11
77.36544104768491
 21
446.601299582925
 31
0.0
  0
LINE
  5
1F9
330
5C
100
AcDbEntity
  8
0
  6
Continuous
 62
     7
100
AcDbLine
 10
77.36544104768491
 20
443.5012995829249
 30
0.0
 11
72.21544104768701
 21
443.5012995829249
 31
0.0
  0
ENDBLK
  5
5E
330
5C
100
AcDbEntity
  8
0
100
AcDbBlockEnd
  0
BLOCK
  5
61
330
5F
100
AcDbEntity
  8
0
100
AcDbBlockBegin
  2
SA_Links1
 70
     0
 10
74.79044100000122
 20
464.2513
 30
0.0
  3
SA_Links1
  1

  0
INSERT
  5
60
330
5F
100
AcDbEntity
  8
0
100
AcDbBlockReference
  2
STN-2_5-SELECT__4
 10
72.21544104768383
 20
443.5012995829249
 30
0.0
  0
MTEXT
  5
1FA
330
5F
100
AcDbEntity
  8
1
 62
     6
100
AcDbMText
 10
74.79044079452956
 20
431.5750001440288
 30
0.0
 40
5.0
 41
0.0
 71
     2
 72
     1
  1
 
  7
CONVERTER_11
 73
     1
 44
1.32052821128451
  0
ENDBLK
  5
62
330
5F
100
AcDbEntity
  8
0
100
AcDbBlockEnd
  0
BLOCK
  5
64
330
63
100
AcDbEntity
  8
0
100
AcDbBlockBegin
  2
STN-2_5-SELECT__5
 70
     0
 10
-59.54677104768402
 20
443.5012995829247
 30
0.0
  3
STN-2_5-SELECT__5
  1

  0
LINE
  5
1FB
330
63
100
AcDbEntity
  8
0
  6
Continuous
 62
     7
100
AcDbLine
 10
-59.54677104768402
 20
466.7012995829234
 30
0.0
 11
-59.54677104768402
 21
454.7012995829234
 31
0.0
  0
LINE
  5
1FC
330
63
100
AcDbEntity
  8
0
  6
Continuous
 62
     7
100
AcDbLine
 10
-54.39677104768441
 20
482.9854964502109
 30
0.0
 11
-59.54677104768402
 21
482.9854964502109
 31
0.0
  0
LINE
  5
1FD
330
63
100
AcDbEntity
  8
0
  6
Continuous
 62
     7
100
AcDbLine
 10
-54.39677104768545
 20
477.3823204877101
 30
0.0
 11
-59.54677104768402
 21
477.3823204877101
 31
0.0
  0
LINE
  5
1FE
330
63
100
AcDbEntity
  8
0
  6
Continuous
 62
     7
100
AcDbLine
 10
-54.39677104768482
 20
481.6010713821397
 30
0.0
 11
-54.39677104768441
 21
482.9854964502109
 31
0.0
  0
LINE
  5
1FF
330
63
100
AcDbEntity
  8
0
  6
Continuous
 62
     7
100
AcDbLine
 10
-54.39677104768435
 20
484.828715282684
 30
0.0
 11
-54.39677104768394
 21
485.0012995829239
 31
0.0
  0
LINE
  5
200
330
63
100
AcDbEntity
  8
0
  6
Continuous
 62
     7
100
AcDbLine
 10
-54.39677104768441
 20
482.9854964502109
 30
0.0
 11
-54.39677104768435
 21
484.828715282684
 31
0.0
  0
LINE
  5
201
330
63
100
AcDbEntity
  8
0
  6
Continuous
 62
     7
100
AcDbLine
 10
-59.54677104768402
 20
484.828715282684
 30
0.0
 11
-54.39677104768435
 21
484.828715282684
 31
0.0
  0
LINE
  5
202
330
63
100
AcDbEntity
  8
0
  6
Continuous
 62
     7
100
AcDbLine
 10
-54.39677104768394
 20
485.0012995829239
 30
0.0
 11
-59.54677104768402
 21
485.0012995829238
 31
0.0
  0
LINE
  5
203
330
63
100
AcDbEntity
  8
0
  6
Continuous
 62
     7
100
AcDbLine
 10
-59.54677104768402
 20
481.6010713821397
 30
0.0
 11
-59.54677104768402
 21
482.9854964502109
 31
0.0
  0
LINE
  5
204
330
63
100
AcDbEntity
  8
0
  6
Continuous
 62
     7
100
AcDbLine
 10
-59.54677104768402
 20
484.828715282684
 30
0.0
 11
-59.54677104768402
 21
485.0012995829238
 31
0.0
  0
LINE
  5
205
330
63
100
AcDbEntity
  8
0
  6
Continuous
 62
     7
100
AcDbLine
 10
-59.54677104768402
 20
482.9854964502109
 30
0.0
 11
-59.54677104768402
 21
484.828715282684
 31
0.0
  0
LINE
  5
206
330
63
100
AcDbEntity
  8
0
  6
Continuous
 62
     7
100
AcDbLine
 10
-54.39677104768548
 20
476.4196010433869
 30
0.0
 11
-59.54677104768402
 21
476.4196010433869
 31
0.0
  0
LINE
  5
207
330
63
100
AcDbEntity
  8
0
  6
Continuous
 62
     7
100
AcDbLine
 10
-59.54677104768402
 20
478.3325557864284
 30
0.0
 11
-59.32851347061227
 21
478.3325557864281
 31
0.0
  0
LINE
  5
208
330
63
100
AcDbEntity
  8
0
  6
Continuous
 62
     7
100
AcDbLine
 10
-59.54677104768402
 20
470.2093557582032
 30
0.0
 11
-59.54677104768402
 21
466.7012995829234
 31
0.0
  0
LINE
  5
209
330
63
100
AcDbEntity
  8
0
  6
Continuous
 62
     7
100
AcDbLine
 10
-54.39677104768583
 20
466.7012995829234
 30
0.0
 11
-54.39677104768617
 21
454.7012995829234
 31
0.0
  0
LINE
  5
20A
330
63
100
AcDbEntity
  8
0
  6
Continuous
 62
     7
100
AcDbLine
 10
-54.39677104768583
 20
466.7012995829234
 30
0.0
 11
-59.54677104768402
 21
466.7012995829234
 31
0.0
  0
LINE
  5
20B
330
63
100
AcDbEntity
  8
0
  6
Continuous
 62
     7
100
AcDbLine
 10
-59.54677104768402
 20
443.5012995829247
 30
0.0
 11
-59.54677104768402
 21
452.4133972510831
 31
0.0
  0
LINE
  5
20C
330
63
100
AcDbEntity
  8
0
  6
Continuous
 62
     7
100
AcDbLine
 10
-59.54677104768402
 20
452.4133972510831
 30
0.0
 11
-54.39677104768624
 21
452.4133972510831
 31
0.0
  0
LINE
  5
20D
330
63
100
AcDbEntity
  8
0
  6
Continuous
 62
     7
100
AcDbLine
 10
-54.39677104768404
 20
443.5012995829247
 30
0.0
 11
-59.54677104768402
 21
443.5012995829247
 31
0.0
  0
LINE
  5
20E
330
63
100
AcDbEntity
  8
0
  6
Continuous
 62
     7
100
AcDbLine
 10
-59.54677104768402
 20
454.7012995829234
 30
0.0
 11
-59.54677104768402
 21
452.4133972510831
 31
0.0
  0
LINE
  5
20F
330
63
100
AcDbEntity
  8
0
  6
Continuous
 62
     7
100
AcDbLine
 10
-54.39677104768617
 20
454.7012995829234
 30
0.0
 11
-54.39677104768624
 21
452.4133972510831
 31
0.0
  0
LINE
  5
210
330
63
100
AcDbEntity
  8
0
  6
Continuous
 62
     7
100
AcDbLine
 10
-54.39677104768617
 20
454.7012995829234
 30
0.0
 11
-59.54677104768402
 21
454.7012995829234
 31
0.0
  0
LINE
  5
211
330
63
100
AcDbEntity
  8
0
  6
Continuous
 62
     7
100
AcDbLine
 10
-54.39677104768545
 20
477.3823204877101
 30
0.0
 11
-54.39677104768482
 21
481.6010713821397
 31
0.0
  0
LINE
  5
212
330
63
100
AcDbEntity
  8
0
  6
Continuous
 62
     7
100
AcDbLine
 10
-54.39677104768543
 20
475.972950441186
 30
0.0
 11
-54.39677104768548
 21
475.9868578554959
 31
0.0
  0
LINE
  5
213
330
63
100
AcDbEntity
  8
0
  6
Continuous
 62
     7
100
AcDbLine
 10
-54.39677104768548
 20
475.9868578554959
 30
0.0
 11
-54.39677104768548
 21
476.4196010433869
 31
0.0
  0
LINE
  5
214
330
63
100
AcDbEntity
  8
0
  6
Continuous
 62
     7
100
AcDbLine
 10
-54.39677104768624
 20
452.4133972510831
 30
0.0
 11
-54.39677104768404
 21
443.5012995829247
 31
0.0
  0
LINE
  5
215
330
63
100
AcDbEntity
  8
0
  6
Continuous
 62
     7
100
AcDbLine
 10
-54.39677104768573
 20
470.2093557582032
 30
0.0
 11
-54.39677104768583
 21
466.7012995829234
 31
0.0
  0
LINE
  5
216
330
63
100
AcDbEntity
  8
0
  6
Continuous
 62
     7
100
AcDbLine
 10
-59.54677104768402
 20
470.3116806951127
 30
0.0
 11
-59.54677104768402
 21
470.4034349321163
 31
0.0
  0
LINE
  5
217
330
63
100
AcDbEntity
  8
0
  6
Continuous
 62
     7
100
AcDbLine
 10
-59.54677104768402
 20
470.4034349321163
 30
0.0
 11
-59.54677104768402
 21
475.972950441186
 31
0.0
  0
LINE
  5
218
330
63
100
AcDbEntity
  8
0
  6
Continuous
 62
     7
100
AcDbLine
 10
-54.39677104768572
 20
470.3116806951127
 30
0.0
 11
-54.39677104768569
 21
470.4034349321163
 31
0.0
  0
LINE
  5
219
330
63
100
AcDbEntity
  8
0
  6
Continuous
 62
     7
100
AcDbLine
 10
-54.39677104768545
 20
477.3823204877101
 30
0.0
 11
-54.39677104768548
 21
476.4196010433869
 31
0.0
  0
LINE
  5
21A
330
63
100
AcDbEntity
  8
0
  6
Continuous
 62
     7
100
AcDbLine
 10
-54.39677104768569
 20
470.4034349321163
 30
0.0
 11
-54.39677104768543
 21
475.972950441186
 31
0.0
  0
LINE
  5
21B
330
63
100
AcDbEntity
  8
0
  6
Continuous
 62
     7
100
AcDbLine
 10
-58.84677104768518
 20
479.9999039065714
 30
0.0
 11
-55.04677104768518
 21
479.9999039065714
 31
0.0
  0
LINE
  5
21C
330
63
100
AcDbEntity
  8
0
  6
Continuous
 62
     7
100
AcDbLine
 10
-59.32851347061246
 20
479.2218081590756
 30
0.0
 11
-59.32851347061227
 21
478.3325557864281
 31
0.0
  0
LINE
  5
21D
330
63
100
AcDbEntity
  8
0
  6
Continuous
 62
     7
100
AcDbLine
 10
-59.54677104768402
 20
477.3823204877101
 30
0.0
 11
-59.54677104768402
 21
478.3325557864284
 31
0.0
  0
LINE
  5
21E
330
63
100
AcDbEntity
  8
0
  6
Continuous
 62
     7
100
AcDbLine
 10
-59.54677104768402
 20
478.3325557864284
 30
0.0
 11
-59.54677104768402
 21
479.2218081590755
 31
0.0
  0
LINE
  5
21F
330
63
100
AcDbEntity
  8
0
  6
Continuous
 62
     7
100
AcDbLine
 10
-59.54677104768402
 20
475.9868578554959
 30
0.0
 11
-59.54677104768402
 21
476.4196010433869
 31
0.0
  0
LINE
  5
220
330
63
100
AcDbEntity
  8
0
  6
Continuous
 62
     7
100
AcDbLine
 10
-59.54677104768402
 20
475.972950441186
 30
0.0
 11
-59.54677104768402
 21
475.9868578554959
 31
0.0
  0
LINE
  5
221
330
63
100
AcDbEntity
  8
0
  6
Continuous
 62
     7
100
AcDbLine
 10
-59.54677104768402
 20
477.3823204877101
 30
0.0
 11
-59.54677104768402
 21
476.4196010433869
 31
0.0
  0
LINE
  5
222
330
63
100
AcDbEntity
  8
0
  6
Continuous
 62
     7
100
AcDbLine
 10
-54.74677104768537
 20
478.6745759297542
 30
0.0
 11
-54.74677104768534
 21
478.8797880157496
 31
0.0
  0
LINE
  5
223
330
63
100
AcDbEntity
  8
0
  6
Continuous
 62
     7
100
AcDbLine
 10
-55.04677104768499
 20
481.29958052978
 30
0.0
 11
-55.04677104768518
 21
479.9999039065714
 31
0.0
  0
LINE
  5
224
330
63
100
AcDbEntity
  8
0
  6
Continuous
 62
     7
100
AcDbLine
 10
-55.04677104768499
 20
481.29958052978
 30
0.0
 11
-58.846771047685
 21
481.29958052978
 31
0.0
  0
LINE
  5
225
330
63
100
AcDbEntity
  8
0
  6
Continuous
 62
     7
100
AcDbLine
 10
-59.54677104768402
 20
481.6010713821397
 30
0.0
 11
-54.39677104768482
 21
481.6010713821397
 31
0.0
  0
LINE
  5
226
330
63
100
AcDbEntity
  8
0
  6
Continuous
 62
     7
100
AcDbLine
 10
-59.54677104768402
 20
470.2093557582032
 30
0.0
 11
-59.54677104768402
 21
470.3116806951127
 31
0.0
  0
LINE
  5
227
330
63
100
AcDbEntity
  8
0
  6
Continuous
 62
     7
100
AcDbLine
 10
-54.39677104768573
 20
470.2093557582032
 30
0.0
 11
-54.39677104768572
 21
470.3116806951127
 31
0.0
  0
LINE
  5
228
330
63
100
AcDbEntity
  8
0
  6
Continuous
 62
     7
100
AcDbLine
 10
-59.54677104768402
 20
470.2093557582032
 30
0.0
 11
-54.39677104768573
 21
470.2093557582032
 31
0.0
  0
LINE
  5
229
330
63
100
AcDbEntity
  8
0
  6
Continuous
 62
     7
100
AcDbLine
 10
-54.39677104768572
 20
470.3116806951127
 30
0.0
 11
-59.54677104768402
 21
470.3116806951127
 31
0.0
  0
LINE
  5
22A
330
63
100
AcDbEntity
  8
0
  6
Continuous
 62
     7
100
AcDbLine
 10
-59.54677104768402
 20
470.4034349321163
 30
0.0
 11
-54.39677104768569
 21
470.4034349321163
 31
0.0
  0
LINE
  5
22B
330
63
100
AcDbEntity
  8
0
  6
Continuous
 62
     7
100
AcDbLine
 10
-59.54677104768402
 20
475.972950441186
 30
0.0
 11
-54.39677104768543
 21
475.972950441186
 31
0.0
  0
LINE
  5
22C
330
63
100
AcDbEntity
  8
0
  6
Continuous
 62
     7
100
AcDbLine
 10
-59.54677104768402
 20
475.9868578554959
 30
0.0
 11
-54.39677104768548
 21
475.9868578554959
 31
0.0
  0
LINE
  5
22D
330
63
100
AcDbEntity
  8
0
  6
Continuous
 62
     7
100
AcDbLine
 10
-59.32851347061246
 20
479.2218081590756
 30
0.0
 11
-59.54677104768402
 21
479.2218081590755
 31
0.0
  0
LINE
  5
22E
330
63
100
AcDbEntity
  8
0
  6
Continuous
 62
     7
100
AcDbLine
 10
-58.846771047685
 20
481.29958052978
 30
0.0
 11
-58.84677104768518
 21
479.9999039065714
 31
0.0
  0
LINE
  5
22F
330
63
100
AcDbEntity
  8
0
  6
Continuous
 62
     7
100
AcDbLine
 10
-59.54677104768402
 20
481.6010713821397
 30
0.0
 11
-59.54677104768402
 21
479.2218081590755
 31
0.0
  0
SPLINE
  5
230
330
63
100
AcDbEntity
  8
0
  6
Continuous
 62
     7
100
AcDbSpline
210
0.0
220
0.0
230
1.0
 70
     8
 71
     3
 72
    17
 73
    13
 74
    11
 42
0.000000001
 43
0.0000000001
 44
0.00000001
 40
0.0
 40
0.0
 40
0.0
 40
0.0
 40
0.3948933821433085
 40
0.8989807824294482
 40
1.48789586681565
 40
2.126235305596962
 40
2.773278797052206
 40
3.387423406102629
 40
3.930479401192299
 40
4.372619116668107
 40
4.700399137926134
 40
4.937127548411927
 40
4.937127548411927
 40
4.937127548411927
 40
4.937127548411927
 10
-59.32851347061246
 20
479.2218081590756
 30
0.0
 10
-59.21477381831274
 20
479.2890371201636
 30
0.0
 10
-58.95584377078049
 20
479.4420848678085
 30
0.0
 10
-58.47253554944184
 20
479.5727211782369
 30
0.0
 10
-57.90391319628109
 20
479.6697096662518
 30
0.0
 10
-57.27901917879909
 20
479.7088674644723
 30
0.0
 10
-56.64501963117512
 20
479.6925294761695
 30
0.0
 10
-56.04804890362265
 20
479.6199987117072
 30
0.0
 10
-55.52414069889148
 20
479.4988897864147
 30
0.0
 10
-55.12502985059938
 20
479.3339904343299
 30
0.0
 10
-54.82270129480109
 20
479.1435373292816
 30
0.0
 10
-54.76920492596231
 20
478.9577137318129
 30
0.0
 10
-54.74677104768534
 20
478.8797880157496
 30
0.0
 11
-59.32851347061246
 21
479.2218081590756
 31
0.0
 11
-58.98091097591955
 21
479.4091935404016
 31
0.0
 11
-58.49925243500824
 21
479.557885030172
 31
0.0
 11
-57.91874022808653
 21
479.6570140073528
 31
0.0
 11
-57.28180531614979
 21
479.699336062745
 31
0.0
 11
-56.63500066951661
 21
479.6817568657602
 31
0.0
 11
-56.02560097351611
 21
479.605562308209
 31
0.0
 11
-55.4981482625844
 21
479.4763204775654
 31
0.0
 11
-55.09119227541628
 21
479.3034784929526
 31
0.0
 11
-54.83447975874365
 21
479.099668720304
 31
0.0
 11
-54.74677104768534
 21
478.8797880157496
 31
0.0
  0
SPLINE
  5
231
330
63
100
AcDbEntity
  8
0
  6
Continuous
 62
     7
100
AcDbSpline
210
0.0
220
0.0
230
1.0
 70
     8
 71
     3
 72
    17
 73
    13
 74
    11
 42
0.000000001
 43
0.0000000001
 44
0.00000001
 40
0.0
 40
0.0
 40
0.0
 40
0.0
 40
0.3948933821433836
 40
0.8989807824295573
 40
1.487895866815719
 40
2.126235305596968
 40
2.773278797052118
 40
3.38742340610245
 40
3.930479401192078
 40
4.372619116667862
 40
4.700399137925918
 40
4.937127548411777
 40
4.937127548411777
 40
4.937127548411777
 40
4.937127548411777
 10
-59.32851347061227
 20
478.3325557864281
 30
0.0
 10
-59.21477381831254
 20
478.2653268253403
 30
0.0
 10
-58.95584377078019
 20
478.1122790776947
 30
0.0
 10
-58.47253554944157
 20
477.981642767267
 30
0.0
 10
-57.9039131962808
 20
477.8846542792519
 30
0.0
 10
-57.27901917879888
 20
477.8454964810316
 30
0.0
 10
-56.64501963117499
 20
477.861834469334
 30
0.0
 10
-56.04804890362257
 20
477.9343652337964
 30
0.0
 10
-55.52414069889149
 20
478.055474159089
 30
0.0
 10
-55.12502985059941
 20
478.2203735111738
 30
0.0
 10
-54.82270129480116
 20
478.4108266162224
 30
0.0
 10
-54.76920492596236
 20
478.5966502136909
 30
0.0
 10
-54.74677104768537
 20
478.6745759297542
 30
0.0
 11
-59.32851347061227
 21
478.3325557864281
 31
0.0
 11
-58.98091097591928
 21
478.1451704051021
 31
0.0
 11
-58.49925243500793
 21
477.9964789153317
 31
0.0
 11
-57.91874022808624
 21
477.897349938151
 31
0.0
 11
-57.28180531614957
 21
477.8550278827588
 31
0.0
 11
-56.63500066951648
 21
477.8726070797435
 31
0.0
 11
-56.02560097351606
 21
477.9488016372947
 31
0.0
 11
-55.49814826258441
 21
478.0780434679382
 31
0.0
 11
-55.09119227541633
 21
478.2508854525511
 31
0.0
 11
-54.83447975874371
 21
478.4546952251998
 31
0.0
 11
-54.74677104768537
 21
478.6745759297542
 31
0.0
  0
ENDBLK
  5
65
330
63
100
AcDbEntity
  8
0
100
AcDbBlockEnd
  0
BLOCK
  5
68
330
66
100
AcDbEntity
  8
0
100
AcDbBlockBegin
  2
SA_Rechts1
 70
     0
 10
-56.9717710000003
 20
464.2512999999998
 30
0.0
  3
SA_Rechts1
  1

  0
INSERT
  5
67
330
66
100
AcDbEntity
  8
0
100
AcDbBlockReference
  2
STN-2_5-SELECT__5
 10
-59.54677104768402
 20
443.5012995829247
 30
0.0
  0
MTEXT
  5
232
330
66
100
AcDbEntity
  8
1
 62
     6
100
AcDbMText
 10
-56.97177079452933
 20
431.5750001440288
 30
0.0
 40
5.0
 41
0.0
 71
     2
 72
     1
  1
 
  7
CONVERTER_11
 73
     1
 44
1.32052821128451
  0
ENDBLK
  5
69
330
66
100
AcDbEntity
  8
0
100
AcDbBlockEnd
  0
BLOCK
  5
6B
330
6A
100
AcDbEntity
  8
0
100
AcDbBlockBegin
  2
STN-2_5-SELECT__6
 70
     0
 10
-7.74212315536567
 20
443.5012995829247
 30
0.0
  3
STN-2_5-SELECT__6
  1

  0
LINE
  5
233
330
6A
100
AcDbEntity
  8
0
  6
Continuous
 62
     7
100
AcDbLine
 10
39.45787684463578
 20
447.6012995829143
 30
0.0
 11
39.45787684463609
 21
448.0529656327646
 31
0.0
  0
LINE
  5
234
330
6A
100
AcDbEntity
  8
0
  6
Continuous
 62
     2
100
AcDbLine
 10
43.93430326583147
 20
472.5665738946391
 30
0.0
 11
46.15743419745367
 21
478.6745759297544
 31
0.0
  0
LINE
  5
235
330
6A
100
AcDbEntity
  8
0
  6
Continuous
 62
     7
100
AcDbLine
 10
47.09712681823967
 20
478.3325557864287
 30
0.0
 11
46.15743419745367
 21
478.6745759297544
 31
0.0
  0
LINE
  5
236
330
6A
100
AcDbEntity
  8
0
  6
Continuous
 62
     2
100
AcDbLine
 10
45.59361862498247
 20
478.8797880157498
 30
0.0
 11
43.37048769336187
 21
472.7717859806367
 31
0.0
  0
LINE
  5
237
330
6A
100
AcDbEntity
  8
0
  6
Continuous
 62
     7
100
AcDbLine
 10
46.15743419745367
 20
478.6745759297544
 30
0.0
 11
45.59361862498247
 21
478.8797880157498
 31
0.0
  0
LINE
  5
238
330
6A
100
AcDbEntity
  8
0
  6
Continuous
 62
     7
100
AcDbLine
 10
44.65392600419636
 20
479.2218081590757
 30
0.0
 11
45.59361862498247
 21
478.8797880157498
 31
0.0
  0
LINE
  5
239
330
6A
100
AcDbEntity
  8
0
  6
Continuous
 62
     7
100
AcDbLine
 10
43.42983500387027
 20
443.5012995829247
 30
0.0
 11
41.11682049775611
 21
443.5012995829249
 31
0.0
  0
LINE
  5
23A
330
6A
100
AcDbEntity
  8
0
  6
Continuous
 62
     7
100
AcDbLine
 10
51.70787684463546
 20
452.4133972510833
 30
0.0
 11
43.42983500387027
 21
443.5012995829247
 31
0.0
  0
LINE
  5
23B
330
6A
100
AcDbEntity
  8
0
  6
Continuous
 62
     7
100
AcDbLine
 10
-7.74212315536448
 20
446.601299582925
 30
0.0
 11
-7.74212315536567
 21
443.5012995829247
 31
0.0
  0
LINE
  5
23C
330
6A
100
AcDbEntity
  8
0
  6
Continuous
 62
     7
100
AcDbLine
 10
-6.24212315536344
 20
445.0012995829265
 30
0.0
 11
-6.24212315536401
 21
445.9304791896751
 31
0.0
  0
LINE
  5
23D
330
6A
100
AcDbEntity
  8
0
  6
Continuous
 62
     7
100
AcDbLine
 10
7.35787684463597
 20
448.0529656327645
 30
0.0
 11
7.35787684463617
 21
447.6012995829241
 31
0.0
  0
LINE
  5
23E
330
6A
100
AcDbEntity
  8
0
  6
Continuous
 62
     7
100
AcDbLine
 10
-4.14212315536525
 20
447.5012995829247
 30
0.0
 11
-4.14212315536526
 21
456.1012995829249
 31
0.0
  0
LINE
  5
23F
330
6A
100
AcDbEntity
  8
0
  6
Continuous
 62
     7
100
AcDbLine
 10
-4.14212315536525
 20
445.0012995829256
 30
0.0
 11
-6.24212315536344
 21
445.0012995829265
 31
0.0
  0
LINE
  5
240
330
6A
100
AcDbEntity
  8
0
  6
Continuous
 62
     7
100
AcDbLine
 10
-4.14212315536525
 20
445.0012995829256
 30
0.0
 11
-4.14212315536525
 21
447.5012995829247
 31
0.0
  0
LINE
  5
241
330
6A
100
AcDbEntity
  8
0
  6
Continuous
 62
     7
100
AcDbLine
 10
-4.14212315536525
 20
447.5012995829247
 30
0.0
 11
-6.84212315536447
 21
447.5012995829247
 31
0.0
  0
LINE
  5
242
330
6A
100
AcDbEntity
  8
0
  6
Continuous
 62
     7
100
AcDbLine
 10
5.69893319150349
 20
443.501299582925
 30
0.0
 11
-7.74212315536567
 21
443.5012995829247
 31
0.0
  0
LINE
  5
243
330
6A
100
AcDbEntity
  8
0
  6
Continuous
 62
     7
100
AcDbLine
 10
49.70787684463596
 20
477.3823204877103
 30
0.0
 11
47.09712681823967
 21
478.3325557864287
 31
0.0
  0
LINE
  5
244
330
6A
100
AcDbEntity
  8
0
  6
Continuous
 62
     7
100
AcDbLine
 10
40.75787684463627
 20
448.401299582925
 30
0.0
 11
40.75787684463634
 21
449.5012995829248
 31
0.0
  0
LINE
  5
245
330
6A
100
AcDbEntity
  8
0
  6
Continuous
 62
     7
100
AcDbLine
 10
45.21601602994507
 20
473.1642463721011
 30
0.0
 11
47.09712681823967
 21
478.3325557864287
 31
0.0
  0
LINE
  5
246
330
6A
100
AcDbEntity
  8
0
  6
Continuous
 62
     7
100
AcDbLine
 10
49.46261515591206
 20
476.249886819446
 30
0.0
 11
49.53309355438827
 21
475.9868578554962
 31
0.0
  0
LINE
  5
247
330
6A
100
AcDbEntity
  8
0
  6
Continuous
 62
     7
100
AcDbLine
 10
51.70787684463546
 20
454.7012995829235
 30
0.0
 11
51.70787684463546
 21
452.4133972510833
 31
0.0
  0
LINE
  5
248
330
6A
100
AcDbEntity
  8
0
  6
Continuous
 62
     7
100
AcDbLine
 10
51.70787684463537
 20
470.2093557582034
 30
0.0
 11
51.70787684463537
 21
466.7012995829235
 31
0.0
  0
LINE
  5
249
330
6A
100
AcDbEntity
  8
0
  6
Continuous
 62
     7
100
AcDbLine
 10
51.37159869202057
 20
470.3116806951128
 30
0.0
 11
51.70787684463537
 21
470.2093557582034
 31
0.0
  0
LINE
  5
24A
330
6A
100
AcDbEntity
  8
0
  6
Continuous
 62
     7
100
AcDbLine
 10
51.02916721770937
 20
470.4034349321165
 30
0.0
 11
51.37159869202057
 21
470.3116806951128
 31
0.0
  0
LINE
  5
24B
330
6A
100
AcDbEntity
  8
0
  6
Continuous
 62
     7
100
AcDbLine
 10
51.02916721770937
 20
470.4034349321165
 30
0.0
 11
51.09964561618557
 21
470.140405968169
 31
0.0
  0
LINE
  5
24C
330
6A
100
AcDbEntity
  8
0
  6
Continuous
 62
     7
100
AcDbLine
 10
51.09964561618557
 20
470.140405968169
 30
0.0
 11
50.06610498205637
 21
469.8634695899088
 31
0.0
  0
LINE
  5
24D
330
6A
100
AcDbEntity
  8
0
  6
Continuous
 62
     7
100
AcDbLine
 10
50.06610498205637
 20
469.8634695899088
 30
0.0
 11
48.42907452178187
 21
475.9729504411862
 31
0.0
  0
LINE
  5
24E
330
6A
100
AcDbEntity
  8
0
  6
Continuous
 62
     7
100
AcDbLine
 10
48.42907452178187
 20
475.9729504411862
 30
0.0
 11
49.46261515591206
 21
476.249886819446
 31
0.0
  0
LINE
  5
24F
330
6A
100
AcDbEntity
  8
0
  6
Continuous
 62
     7
100
AcDbLine
 10
49.53309355438827
 20
475.9868578554962
 30
0.0
 11
49.96583674228047
 21
476.4196010433872
 31
0.0
  0
LINE
  5
250
330
6A
100
AcDbEntity
  8
0
  6
Continuous
 62
     7
100
AcDbLine
 10
49.70787684463596
 20
477.3823204877103
 30
0.0
 11
49.96583674228047
 21
476.4196010433872
 31
0.0
  0
LINE
  5
251
330
6A
100
AcDbEntity
  8
0
  6
Continuous
 62
     7
100
AcDbLine
 10
8.44020310506426
 20
456.1012995829249
 30
0.0
 11
8.51408375369309
 21
456.1012995829249
 31
0.0
  0
LINE
  5
252
330
6A
100
AcDbEntity
  8
0
  6
Continuous
 62
     7
100
AcDbLine
 10
7.65787684463609
 20
449.5012995829248
 30
0.0
 11
9.19023183209535
 21
455.2201262513531
 31
0.0
  0
LINE
  5
253
330
6A
100
AcDbEntity
  8
0
  6
Continuous
 62
     7
100
AcDbLine
 10
6.69965426182719
 20
485.001299582924
 30
0.0
 11
19.69822246966128
 21
485.001299582924
 31
0.0
  0
LINE
  5
254
330
6A
100
AcDbEntity
  8
0
  6
Continuous
 62
     7
100
AcDbLine
 10
35.38966427969537
 20
476.208657034397
 30
0.0
 11
27.87212331345751
 21
478.9448181809845
 31
0.0
  0
LINE
  5
255
330
6A
100
AcDbEntity
  8
0
  6
Continuous
 62
     7
100
AcDbLine
 10
44.65392600419636
 20
479.2218081590757
 30
0.0
 11
38.11695402389141
 21
481.6010713821399
 31
0.0
  0
LINE
  5
256
330
6A
100
AcDbEntity
  8
0
  6
Continuous
 62
     7
100
AcDbLine
 10
39.45787684463609
 20
448.0529656327646
 30
0.0
 11
40.75787684463627
 21
448.401299582925
 31
0.0
  0
LINE
  5
257
330
6A
100
AcDbEntity
  8
0
  6
Continuous
 62
     7
100
AcDbLine
 10
43.37048769336187
 20
472.7717859806367
 30
0.0
 11
43.93430326583147
 21
472.5665738946391
 31
0.0
  0
LINE
  5
258
330
6A
100
AcDbEntity
  8
0
  6
Continuous
 62
     7
100
AcDbLine
 10
44.65392600419636
 20
479.2218081590757
 30
0.0
 11
42.77281521590197
 21
474.0534987447486
 31
0.0
  0
LINE
  5
259
330
6A
100
AcDbEntity
  8
0
  6
Continuous
 62
     7
100
AcDbLine
 10
36.86035089599513
 20
480.2493353037752
 30
0.0
 11
38.11695402389141
 21
481.6010713821399
 31
0.0
  0
LINE
  5
25A
330
6A
100
AcDbEntity
  8
0
  6
Continuous
 62
     7
100
AcDbLine
 10
35.38966427969537
 20
476.208657034397
 30
0.0
 11
36.86035089599513
 21
480.2493353037752
 31
0.0
  0
LINE
  5
25B
330
6A
100
AcDbEntity
  8
0
  6
Continuous
 62
     7
100
AcDbLine
 10
-6.7421231553633
 20
475.1012995829249
 30
0.0
 11
-6.7421231553633
 21
482.4512995829251
 31
0.0
  0
LINE
  5
25C
330
6A
100
AcDbEntity
  8
0
  6
Continuous
 62
     7
100
AcDbLine
 10
-4.14212315536526
 20
456.1012995829249
 30
0.0
 11
-7.74212315536449
 21
456.1012995829249
 31
0.0
  0
LINE
  5
25D
330
6A
100
AcDbEntity
  8
0
  6
Continuous
 62
     7
100
AcDbLine
 10
-7.74212315536449
 20
459.0505731991908
 30
0.0
 11
-7.74212315536449
 21
456.1012995829249
 31
0.0
  0
LINE
  5
25E
330
6A
100
AcDbEntity
  8
0
  6
Continuous
 62
     7
100
AcDbLine
 10
-7.74212315536449
 20
459.0505731991908
 30
0.0
 11
-4.24212315536425
 21
461.5012995829249
 31
0.0
  0
LINE
  5
25F
330
6A
100
AcDbEntity
  8
0
  6
Continuous
 62
     7
100
AcDbLine
 10
-4.24212315536425
 20
461.5012995829249
 30
0.0
 11
3.757876844636
 21
461.5012995829249
 31
0.0
  0
LINE
  5
260
330
6A
100
AcDbEntity
  8
0
  6
Continuous
 62
     7
100
AcDbLine
 10
6.05787684463658
 20
448.401299582925
 30
0.0
 11
7.35787684463597
 21
448.0529656327645
 31
0.0
  0
LINE
  5
261
330
6A
100
AcDbEntity
  8
0
  6
Continuous
 62
     7
100
AcDbLine
 10
-6.7421231553633
 20
482.4512995829251
 30
0.0
 11
3.0578768446363
 21
482.4512995829251
 31
0.0
  0
LINE
  5
262
330
6A
100
AcDbEntity
  8
0
  6
Continuous
 62
     7
100
AcDbLine
 10
-6.7421231553633
 20
475.1012995829249
 30
0.0
 11
3.75787684463581
 21
475.1012995829249
 31
0.0
  0
LINE
  5
263
330
6A
100
AcDbEntity
  8
0
  6
Continuous
 62
     7
100
AcDbLine
 10
3.0578768446363
 20
482.4512995829251
 30
0.0
 11
6.69965426182719
 21
485.001299582924
 31
0.0
  0
LINE
  5
264
330
6A
100
AcDbEntity
  8
0
  6
Continuous
 62
     7
100
AcDbLine
 10
6.0578768446366
 20
449.5012995829332
 30
0.0
 11
6.05787684463658
 21
448.401299582925
 31
0.0
  0
LINE
  5
265
330
6A
100
AcDbEntity
  8
0
  6
Continuous
 62
     7
100
AcDbLine
 10
6.0578768446366
 20
449.5012995829332
 30
0.0
 11
7.66746244403305
 21
455.5083548190071
 31
0.0
  0
LINE
  5
266
330
6A
100
AcDbEntity
  8
0
  6
Continuous
 62
     7
100
AcDbLine
 10
3.757876844636
 20
461.5012995829249
 30
0.0
 11
3.75787684463581
 21
475.1012995829249
 31
0.0
  0
LINE
  5
267
330
6A
100
AcDbEntity
  8
0
  6
Continuous
 62
     7
100
AcDbLine
 10
26.81753121960782
 20
485.0012995829249
 30
0.0
 11
28.77490382125255
 21
485.0012995829249
 31
0.0
  0
LINE
  5
268
330
6A
100
AcDbEntity
  8
0
  6
Continuous
 62
     7
100
AcDbLine
 10
28.77490382125255
 20
485.0012995829249
 30
0.0
 11
29.24907528911602
 21
484.8287152826842
 31
0.0
  0
LINE
  5
269
330
6A
100
AcDbEntity
  8
0
  6
Continuous
 62
     7
100
AcDbLine
 10
26.81753121960782
 20
485.0012995829249
 30
0.0
 11
25.8924783775531
 21
482.896299582929
 31
0.0
  0
LINE
  5
26A
330
6A
100
AcDbEntity
  8
0
  6
Continuous
 62
     7
100
AcDbLine
 10
29.24907528911602
 20
484.8287152826842
 30
0.0
 11
29.3428099297165
 21
482.9854964502111
 31
0.0
  0
LINE
  5
26B
330
6A
100
AcDbEntity
  8
0
  6
Continuous
 62
     7
100
AcDbLine
 10
20.62327531172227
 20
482.8962995829261
 30
0.0
 11
20.09537684463646
 21
482.896299582926
 31
0.0
  0
LINE
  5
26C
330
6A
100
AcDbEntity
  8
0
  6
Continuous
 62
     7
100
AcDbLine
 10
20.09537684463646
 20
481.8262995829272
 30
0.0
 11
20.09537684463646
 21
482.896299582926
 31
0.0
  0
LINE
  5
26D
330
6A
100
AcDbEntity
  8
0
  6
Continuous
 62
     7
100
AcDbLine
 10
26.42037684463672
 20
482.8962995829291
 30
0.0
 11
26.42037684463671
 21
481.826299582927
 31
0.0
  0
LINE
  5
26E
330
6A
100
AcDbEntity
  8
0
  6
Continuous
 62
     7
100
AcDbLine
 10
26.42037684463672
 20
482.8962995829291
 30
0.0
 11
25.8924783775531
 21
482.896299582929
 31
0.0
  0
LINE
  5
26F
330
6A
100
AcDbEntity
  8
0
  6
Continuous
 62
     7
100
AcDbLine
 10
29.3428099297165
 20
482.9854964502111
 30
0.0
 11
27.87212331345751
 21
478.9448181809845
 31
0.0
  0
LINE
  5
270
330
6A
100
AcDbEntity
  8
0
  6
Continuous
 62
     7
100
AcDbLine
 10
20.62327531172227
 20
482.8962995829261
 30
0.0
 11
19.69822246966128
 21
485.001299582924
 31
0.0
  0
LINE
  5
271
330
6A
100
AcDbEntity
  8
0
  6
Continuous
 62
     7
100
AcDbLine
 10
20.09537684463646
 20
481.8262995829272
 30
0.0
 11
26.42037684463671
 21
481.826299582927
 31
0.0
  0
LINE
  5
272
330
6A
100
AcDbEntity
  8
0
  6
Continuous
 62
     7
100
AcDbLine
 10
40.75787684463634
 20
449.5012995829248
 30
0.0
 11
7.65787684463609
 21
449.5012995829248
 31
0.0
  0
ARC
  5
273
330
6A
100
AcDbEntity
  8
0
  6
Continuous
 62
     7
100
AcDbCircle
 10
48.85184952401367
 20
449.0166713712031
 30
0.0
 40
9.499999999999059
100
AcDbArc
 50
188.5681975616868
 51
215.4903233114351
  0
ARC
  5
274
330
6A
100
AcDbEntity
  8
0
  6
Continuous
 62
     7
100
AcDbCircle
 10
-6.84212315536447
 20
446.6012995829246
 30
0.0
 40
0.900000000000091
100
AcDbArc
 50
90.0
 51
179.9999999999747
  0
ARC
  5
275
330
6A
100
AcDbEntity
  8
0
  6
Continuous
 62
     7
100
AcDbCircle
 10
-2.03609583474022
 20
449.0166713712225
 30
0.0
 40
9.499999999998982
100
AcDbArc
 50
324.5096766884215
 51
351.4318024382545
  0
ARC
  5
276
330
6A
100
AcDbEntity
  8
0
  6
Continuous
 62
     7
100
AcDbCircle
 10
-6.84212315536447
 20
446.6012995829246
 30
0.0
 40
0.899999999999957
100
AcDbArc
 50
311.81031489582
 51
90.0
  0
ARC
  5
277
330
6A
100
AcDbEntity
  8
0
  6
Continuous
 62
     7
100
AcDbCircle
 10
44.27632340915761
 20
473.5062665154262
 30
0.0
 40
1.000000000001309
100
AcDbArc
 50
249.9999999999982
 51
340.0000000000609
  0
ARC
  5
278
330
6A
100
AcDbEntity
  8
0
  6
Continuous
 62
     7
100
AcDbCircle
 10
65.45560392950297
 20
460.7012995829236
 30
0.0
 40
15.00000000000005
100
AcDbArc
 50
156.4218215217985
 51
203.578178478202
  0
ARC
  5
279
330
6A
100
AcDbEntity
  8
0
  6
Continuous
 62
     7
100
AcDbCircle
 10
8.51408375369301
 20
455.4012995829249
 30
0.0
 40
0.6999999999999852
100
AcDbArc
 50
345.0000000000004
 51
89.99999999999419
  0
ARC
  5
27A
330
6A
100
AcDbEntity
  8
0
  6
Continuous
 62
     7
100
AcDbCircle
 10
43.71250783668776
 20
473.7114786014226
 30
0.0
 40
1.000000000000007
100
AcDbArc
 50
159.9999999999793
 51
249.9999999999875
  0
ARC
  5
27B
330
6A
100
AcDbEntity
  8
0
  6
Continuous
 62
     7
100
AcDbCircle
 10
8.44020310506426
 20
455.3012995829249
 30
0.0
 40
0.8000000000000114
100
AcDbArc
 50
90.0
 51
164.9999999999886
  0
ENDBLK
  5
6C
330
6A
100
AcDbEntity
  8
0
100
AcDbBlockEnd
  0
BLOCK
  5
6F
330
6D
100
AcDbEntity
  8
0
100
AcDbBlockBegin
  2
Vordans1
 70
     0
 10
22.00000000000021
 20
464.2513
 30
0.0
  3
Vordans1
  1

  0
INSERT
  5
6E
330
6D
100
AcDbEntity
  8
0
100
AcDbBlockReference
  2
STN-2_5-SELECT__6
 10
-7.74212315536567
 20
443.5012995829247
 30
0.0
  0
LINE
  5
27C
330
6D
100
AcDbEntity
  8
1
  6
Continuous
 62
     2
100
AcDbLine
 10
23.25787684463606
 20
451.8394970626648
 30
0.0
 11
23.25787684463606
 21
446.8394970626648
 31
0.0
  0
MTEXT
  5
27D
330
6D
100
AcDbEntity
  8
1
 62
     6
100
AcDbMText
 10
21.90933503582107
 20
431.5750001440288
 30
0.0
 40
5.0
 41
0.0
 71
     2
 72
     1
  1
 
  7
CONVERTER_11
 73
     1
 44
1.32052821128451
  0
DIMENSION
  5
288
330
6D
100
AcDbEntity
  8
1
100
AcDbDimension
  2
*D18
 10
51.70787684463546
 20
408.3962542887938
 30
0.0
 11
23.22873621270245
 21
412.3212542887938
 31
0.0
 70
    32
  1
<>
 71
     5
 42
-1.0
 53
0.00013888888889
  3
ME10_DIM_11
100
AcDbAlignedDimension
 13
-7.74212315536448
 23
446.601299582925
 33
0.0
 14
51.70787684463546
 24
454.7012995829235
 34
0.0
100
AcDbRotatedDimension
  0
DIMENSION
  5
293
330
6D
100
AcDbEntity
  8
1
100
AcDbDimension
  2
*D19
 10
23.25787684463606
 20
419.691922167269
 30
0.0
 11
38.57068643845289
 21
423.616922167269
 31
0.0
 70
    32
  1
<>
 71
     5
 42
-1.0
 53
0.00013888888889
  3
ME10_DIM_12
100
AcDbAlignedDimension
 13
51.70787684463546
 23
452.4133972510833
 33
0.0
 14
23.25787684463606
 24
446.8394970626648
 34
0.0
100
AcDbRotatedDimension
  0
DIMENSION
  5
29E
330
6D
100
AcDbEntity
  8
1
100
AcDbDimension
  2
*D20
 10
23.25787684463605
 20
429.16003814222
 30
0.0
 11
32.02264361465508
 21
433.08503814222
 31
0.0
 70
    32
  1
<>
 71
     5
 42
-1.0
 53
0.00013888888889
  3
ME10_DIM_13
100
AcDbAlignedDimension
 13
40.75787684463627
 23
448.401299582925
 33
0.0
 14
23.25787684463606
 24
446.8394970626648
 34
0.0
100
AcDbRotatedDimension
  0
DIMENSION
  5
2A9
330
6D
100
AcDbEntity
  8
1
100
AcDbDimension
  2
*D21
 10
-21.99800285696846
 20
485.001299582924
 30
0.0
 11
-25.42300285696846
 21
465.307482253688
 31
0.0
 70
    32
  1
<>
 71
     5
 42
-1.0
 53
90.0
  3
ME10_DIM_14
100
AcDbAlignedDimension
 13
5.69893319150349
 23
443.501299582925
 33
0.0
 14
19.69822246966128
 24
485.001299582924
 34
0.0
 50
90.0
100
AcDbRotatedDimension
  0
DIMENSION
  5
2B4
330
6D
100
AcDbEntity
  8
1
100
AcDbDimension
  2
*D22
 10
-13.89931107730597
 20
485.001299582924
 30
0.0
 11
-17.32431107730597
 21
466.909236053507
 31
0.0
 70
    32
  1
<>
 71
     5
 42
-1.0
 53
90.0
  3
ME10_DIM_15
100
AcDbAlignedDimension
 13
7.65787684463609
 23
449.5012995829248
 33
0.0
 14
19.69822246966128
 24
485.001299582924
 34
0.0
 50
90.0
100
AcDbRotatedDimension
  0
ENDBLK
  5
70
330
6D
100
AcDbEntity
  8
0
100
AcDbBlockEnd
  0
BLOCK
  5
72
330
71
100
AcDbEntity
  8
0
100
AcDbBlockBegin
  2
_rahmen
 70
     0
 10
193.888116553841
 20
316.9332350061358
 30
0.0
  3
_rahmen
  1

  0
LINE
  5
2B5
330
71
100
AcDbEntity
  8
1
  6
Continuous
 62
     6
100
AcDbLine
 10
64.343312027091
 20
347.4332350061359
 30
0.0
 11
193.8881165538427
 21
347.4332350061359
 31
0.0
  0
LINE
  5
2B6
330
71
100
AcDbEntity
  8
1
  6
Continuous
 62
     7
100
AcDbLine
 10
82.54331202709102
 20
326.1832350061359
 30
0.0
 11
100.7433120270909
 21
326.1832350061359
 31
0.0
  0
LINE
  5
2B7
330
71
100
AcDbEntity
  8
1
  6
Continuous
 62
     6
100
AcDbLine
 10
82.54331202709102
 20
321.9332350061359
 30
0.0
 11
64.343312027091
 21
321.9332350061358
 31
0.0
  0
LINE
  5
2B8
330
71
100
AcDbEntity
  8
1
  6
Continuous
 62
     7
100
AcDbLine
 10
82.54331202709102
 20
326.1832350061359
 30
0.0
 11
82.54331202709102
 21
321.9332350061359
 31
0.0
  0
LINE
  5
2B9
330
71
100
AcDbEntity
  8
1
  6
Continuous
 62
     7
100
AcDbLine
 10
100.7433120270909
 20
326.1832350061359
 30
0.0
 11
100.7433120270909
 21
321.9332350061358
 31
0.0
  0
LINE
  5
2BA
330
71
100
AcDbEntity
  8
1
  6
Continuous
 62
     7
100
AcDbLine
 10
64.343312027091
 20
326.1832350061358
 30
0.0
 11
64.343312027091
 21
321.9332350061358
 31
0.0
  0
LINE
  5
2BB
330
71
100
AcDbEntity
  8
1
  6
Continuous
 62
     7
100
AcDbLine
 10
64.343312027091
 20
326.1832350061358
 30
0.0
 11
82.54331202709102
 21
326.1832350061359
 31
0.0
  0
LINE
  5
2BC
330
71
100
AcDbEntity
  8
1
  6
Continuous
 62
     2
100
AcDbLine
 10
73.5799669136536
 20
345.5582350061358
 30
0.0
 11
73.5799669136536
 21
340.5582350061358
 31
0.0
  0
LINE
  5
2BD
330
71
100
AcDbEntity
  8
1
  6
Continuous
 62
     2
100
AcDbLine
 10
73.5799669136536
 20
340.5582350061358
 30
0.0
 11
68.5799669136536
 21
341.8082350061358
 31
0.0
  0
LINE
  5
2BE
330
71
100
AcDbEntity
  8
1
  6
Continuous
 62
     2
100
AcDbLine
 10
68.5799669136536
 20
341.8082350061358
 30
0.0
 11
68.5799669136536
 21
344.3082350061358
 31
0.0
  0
LINE
  5
2BF
330
71
100
AcDbEntity
  8
1
  6
Continuous
 62
     2
100
AcDbLine
 10
68.5799669136536
 20
344.3082350061358
 30
0.0
 11
73.5799669136536
 21
345.5582350061358
 31
0.0
  0
LINE
  5
2C0
330
71
100
AcDbEntity
  8
1
  6
Continuous
 62
     6
100
AcDbLine
 10
-58.11188344615721
 20
321.9332350061359
 30
0.0
 11
-93.1118834461571
 21
321.9332350061359
 31
0.0
  0
LINE
  5
2C1
330
71
100
AcDbEntity
  8
1
  6
Continuous
 62
     6
100
AcDbLine
 10
193.8881165538427
 20
338.9332350061359
 30
0.0
 11
193.8881165538423
 21
330.4332350061359
 31
0.0
  0
LINE
  5
2C2
330
71
100
AcDbEntity
  8
1
  6
Continuous
 62
     6
100
AcDbLine
 10
100.7433120270909
 20
321.9332350061358
 30
0.0
 11
100.388116553841
 21
321.9332350061359
 31
0.0
  0
LINE
  5
2C3
330
71
100
AcDbEntity
  8
1
  6
Continuous
 62
     6
100
AcDbLine
 10
-51.91188344615921
 20
321.9332350061358
 30
0.0
 11
-58.11188344615721
 21
321.9332350061359
 31
0.0
  0
LINE
  5
2C4
330
71
100
AcDbEntity
  8
1
  6
Continuous
 62
     7
100
AcDbLine
 10
100.7433120270909
 20
338.9332350061359
 30
0.0
 11
100.7433120270909
 21
326.1832350061359
 31
0.0
  0
LINE
  5
2C5
330
71
100
AcDbEntity
  8
1
  6
Continuous
 62
     7
100
AcDbLine
 10
64.343312027091
 20
338.9332350061359
 30
0.0
 11
64.343312027091
 21
326.1832350061358
 31
0.0
  0
LINE
  5
2C6
330
71
100
AcDbEntity
  8
1
  6
Continuous
 62
     6
100
AcDbLine
 10
50.38811655384103
 20
321.9332350061359
 30
0.0
 11
0.3881165538408
 21
321.9332350061359
 31
0.0
  0
LINE
  5
2C7
330
71
100
AcDbEntity
  8
1
  6
Continuous
 62
     6
100
AcDbLine
 10
-51.91188344615921
 20
321.9332350061358
 30
0.0
 11
-49.61188344615897
 21
321.9332350061359
 31
0.0
  0
LINE
  5
2C8
330
71
100
AcDbEntity
  8
1
  6
Continuous
 62
     6
100
AcDbLine
 10
100.7433120270909
 20
321.9332350061358
 30
0.0
 11
150.388116553841
 21
321.9332350061359
 31
0.0
  0
LINE
  5
2C9
330
71
100
AcDbEntity
  8
1
  6
Continuous
 62
     6
100
AcDbLine
 10
193.888116553841
 20
321.9332350061359
 30
0.0
 11
193.8881165538423
 21
330.4332350061359
 31
0.0
  0
LINE
  5
2CA
330
71
100
AcDbEntity
  8
1
  6
Continuous
 62
     2
100
AcDbLine
 10
-98.11188344615806
 20
321.9332350061359
 30
0.0
 11
-98.11188344615806
 21
316.9332350061358
 31
0.0
  0
LINE
  5
2CB
330
71
100
AcDbEntity
  8
1
  6
Continuous
 62
     2
100
AcDbLine
 10
-93.1118834461571
 20
321.9332350061359
 30
0.0
 11
-98.11188344615806
 21
321.9332350061359
 31
0.0
  0
LINE
  5
2CC
330
71
100
AcDbEntity
  8
1
  6
Continuous
 62
     2
100
AcDbLine
 10
-93.1118834461571
 20
316.9332350061358
 30
0.0
 11
-49.61188344615897
 21
316.9332350061358
 31
0.0
  0
LINE
  5
2CD
330
71
100
AcDbEntity
  8
1
  6
Continuous
 62
     2
100
AcDbLine
 10
-93.1118834461571
 20
321.9332350061359
 30
0.0
 11
-93.1118834461571
 21
316.9332350061358
 31
0.0
  0
LINE
  5
2CE
330
71
100
AcDbEntity
  8
1
  6
Continuous
 62
     2
100
AcDbLine
 10
150.388116553841
 20
316.9332350061358
 30
0.0
 11
100.388116553841
 21
316.9332350061358
 31
0.0
  0
LINE
  5
2CF
330
71
100
AcDbEntity
  8
1
  6
Continuous
 62
     2
100
AcDbLine
 10
150.388116553841
 20
316.9332350061358
 30
0.0
 11
150.388116553841
 21
321.9332350061359
 31
0.0
  0
LINE
  5
2D0
330
71
100
AcDbEntity
  8
1
  6
Continuous
 62
     2
100
AcDbLine
 10
100.388116553841
 20
316.9332350061358
 30
0.0
 11
100.388116553841
 21
321.9332350061359
 31
0.0
  0
LINE
  5
2D1
330
71
100
AcDbEntity
  8
1
  6
Continuous
 62
     2
100
AcDbLine
 10
50.38811655384103
 20
316.9332350061358
 30
0.0
 11
100.388116553841
 21
316.9332350061358
 31
0.0
  0
LINE
  5
2D2
330
71
100
AcDbEntity
  8
1
  6
Continuous
 62
     2
100
AcDbLine
 10
50.38811655384103
 20
316.9332350061358
 30
0.0
 11
50.38811655384103
 21
321.9332350061359
 31
0.0
  0
LINE
  5
2D3
330
71
100
AcDbEntity
  8
1
  6
Continuous
 62
     2
100
AcDbLine
 10
0.3881165538408
 20
316.9332350061358
 30
0.0
 11
50.38811655384103
 21
316.9332350061358
 31
0.0
  0
LINE
  5
2D4
330
71
100
AcDbEntity
  8
1
  6
Continuous
 62
     2
100
AcDbLine
 10
0.3881165538408
 20
316.9332350061358
 30
0.0
 11
0.3881165538408
 21
321.9332350061359
 31
0.0
  0
LINE
  5
2D5
330
71
100
AcDbEntity
  8
1
  6
Continuous
 62
     2
100
AcDbLine
 10
-49.61188344615897
 20
316.9332350061358
 30
0.0
 11
0.3881165538408
 21
316.9332350061358
 31
0.0
  0
LINE
  5
2D6
330
71
100
AcDbEntity
  8
1
  6
Continuous
 62
     2
100
AcDbLine
 10
-49.61188344615897
 20
316.9332350061358
 30
0.0
 11
-49.61188344615897
 21
321.9332350061359
 31
0.0
  0
LINE
  5
2D7
330
71
100
AcDbEntity
  8
1
  6
Continuous
 62
     6
100
AcDbLine
 10
-93.11188344615726
 20
371.933235006136
 30
0.0
 11
-93.1118834461571
 21
321.9332350061359
 31
0.0
  0
LINE
  5
2D8
330
71
100
AcDbEntity
  8
1
  6
Continuous
 62
     2
100
AcDbLine
 10
-98.11188344615806
 20
371.933235006136
 30
0.0
 11
-98.11188344615806
 21
321.9332350061359
 31
0.0
  0
LINE
  5
2D9
330
71
100
AcDbEntity
  8
1
  6
Continuous
 62
     2
100
AcDbLine
 10
-98.11188344615806
 20
371.933235006136
 30
0.0
 11
-93.11188344615726
 21
371.933235006136
 31
0.0
  0
LINE
  5
2DA
330
71
100
AcDbEntity
  8
1
  6
Continuous
 62
     6
100
AcDbLine
 10
-93.11188344615749
 20
421.9332350061358
 30
0.0
 11
-93.11188344615726
 21
371.933235006136
 31
0.0
  0
LINE
  5
2DB
330
71
100
AcDbEntity
  8
1
  6
Continuous
 62
     2
100
AcDbLine
 10
-98.11188344615806
 20
421.9332350061358
 30
0.0
 11
-98.11188344615806
 21
371.933235006136
 31
0.0
  0
LINE
  5
2DC
330
71
100
AcDbEntity
  8
1
  6
Continuous
 62
     2
100
AcDbLine
 10
-98.11188344615806
 20
421.9332350061358
 30
0.0
 11
-93.11188344615749
 21
421.9332350061358
 31
0.0
  0
LINE
  5
2DD
330
71
100
AcDbEntity
  8
1
  6
Continuous
 62
     6
100
AcDbLine
 10
-93.111883446158
 20
471.9332350061359
 30
0.0
 11
-93.11188344615749
 21
421.9332350061358
 31
0.0
  0
LINE
  5
2DE
330
71
100
AcDbEntity
  8
1
  6
Continuous
 62
     2
100
AcDbLine
 10
-98.11188344615806
 20
471.9332350061359
 30
0.0
 11
-98.11188344615806
 21
421.9332350061358
 31
0.0
  0
LINE
  5
2DF
330
71
100
AcDbEntity
  8
1
  6
Continuous
 62
     2
100
AcDbLine
 10
-98.11188344615806
 20
471.9332350061359
 30
0.0
 11
-93.111883446158
 21
471.9332350061359
 31
0.0
  0
LINE
  5
2E0
330
71
100
AcDbEntity
  8
1
  6
Continuous
 62
     6
100
AcDbLine
 10
-93.11188344615806
 20
506.9332350061359
 30
0.0
 11
-93.111883446158
 21
471.9332350061359
 31
0.0
  0
LINE
  5
2E1
330
71
100
AcDbEntity
  8
1
  6
Continuous
 62
     2
100
AcDbLine
 10
-98.11188344615806
 20
526.9332350061359
 30
0.0
 11
-98.11188344615806
 21
471.9332350061359
 31
0.0
  0
LINE
  5
2E2
330
71
100
AcDbEntity
  8
1
  6
Continuous
 62
     2
100
AcDbLine
 10
-98.11188344615806
 20
316.9332350061358
 30
0.0
 11
-93.1118834461571
 21
316.9332350061358
 31
0.0
  0
LINE
  5
2E3
330
71
100
AcDbEntity
  8
1
  6
Continuous
 62
     2
100
AcDbLine
 10
50.38811655384103
 20
526.9332350061359
 30
0.0
 11
50.38811655384103
 21
517.7245431614346
 31
0.0
  0
LINE
  5
2E4
330
71
100
AcDbEntity
  8
1
  6
Continuous
 62
     2
100
AcDbLine
 10
50.38811655384103
 20
526.9332350061359
 30
0.0
 11
-98.11188344615806
 21
526.9332350061359
 31
0.0
  0
LINE
  5
2E5
330
71
100
AcDbEntity
  8
1
  6
Continuous
 62
     2
100
AcDbLine
 10
198.88811655384
 20
321.9332350061359
 30
0.0
 11
198.88811655384
 21
371.933235006136
 31
0.0
  0
LINE
  5
2E6
330
71
100
AcDbEntity
  8
1
  6
Continuous
 62
     2
100
AcDbLine
 10
198.88811655384
 20
471.9332350061359
 30
0.0
 11
198.88811655384
 21
526.9332350061359
 31
0.0
  0
LINE
  5
2E7
330
71
100
AcDbEntity
  8
1
  6
Continuous
 62
     6
100
AcDbLine
 10
193.8881165538402
 20
471.9332350061359
 30
0.0
 11
193.88811655384
 21
506.9332350061359
 31
0.0
  0
LINE
  5
2E8
330
71
100
AcDbEntity
  8
1
  6
Continuous
 62
     2
100
AcDbLine
 10
193.8881165538402
 20
471.9332350061359
 30
0.0
 11
198.88811655384
 21
471.9332350061359
 31
0.0
  0
LINE
  5
2E9
330
71
100
AcDbEntity
  8
1
  6
Continuous
 62
     2
100
AcDbLine
 10
198.88811655384
 20
421.9332350061358
 30
0.0
 11
198.88811655384
 21
471.9332350061359
 31
0.0
  0
LINE
  5
2EA
330
71
100
AcDbEntity
  8
1
  6
Continuous
 62
     6
100
AcDbLine
 10
193.8881165538414
 20
421.9332350061358
 30
0.0
 11
193.8881165538402
 21
471.9332350061359
 31
0.0
  0
LINE
  5
2EB
330
71
100
AcDbEntity
  8
1
  6
Continuous
 62
     2
100
AcDbLine
 10
193.8881165538414
 20
421.9332350061358
 30
0.0
 11
198.88811655384
 21
421.9332350061358
 31
0.0
  0
LINE
  5
2EC
330
71
100
AcDbEntity
  8
1
  6
Continuous
 62
     2
100
AcDbLine
 10
198.88811655384
 20
371.933235006136
 30
0.0
 11
198.88811655384
 21
421.9332350061358
 31
0.0
  0
LINE
  5
2ED
330
71
100
AcDbEntity
  8
1
  6
Continuous
 62
     6
100
AcDbLine
 10
193.8881165538419
 20
371.933235006136
 30
0.0
 11
193.8881165538414
 21
421.9332350061358
 31
0.0
  0
LINE
  5
2EE
330
71
100
AcDbEntity
  8
1
  6
Continuous
 62
     2
100
AcDbLine
 10
193.8881165538419
 20
371.933235006136
 30
0.0
 11
198.88811655384
 21
371.933235006136
 31
0.0
  0
LINE
  5
2EF
330
71
100
AcDbEntity
  8
1
  6
Continuous
 62
     6
100
AcDbLine
 10
193.88811655384
 20
506.9332350061359
 30
0.0
 11
-93.11188344615806
 21
506.9332350061359
 31
0.0
  0
LINE
  5
2F0
330
71
100
AcDbEntity
  8
1
  6
Continuous
 62
     2
100
AcDbLine
 10
198.88811655384
 20
526.9332350061359
 30
0.0
 11
50.38811655384103
 21
526.9332350061359
 31
0.0
  0
LINE
  5
2F1
330
71
100
AcDbEntity
  8
1
  6
Continuous
 62
     6
100
AcDbLine
 10
193.8881165538427
 20
338.9332350061359
 30
0.0
 11
193.8881165538419
 21
371.933235006136
 31
0.0
  0
LINE
  5
2F2
330
71
100
AcDbEntity
  8
1
  6
Continuous
 62
     2
100
AcDbLine
 10
193.888116553841
 20
316.9332350061358
 30
0.0
 11
150.388116553841
 21
316.9332350061358
 31
0.0
  0
LINE
  5
2F3
330
71
100
AcDbEntity
  8
1
  6
Continuous
 62
     2
100
AcDbLine
 10
198.88811655384
 20
316.9332350061358
 30
0.0
 11
193.888116553841
 21
316.9332350061358
 31
0.0
  0
LINE
  5
2F4
330
71
100
AcDbEntity
  8
1
  6
Continuous
 62
     2
100
AcDbLine
 10
198.88811655384
 20
316.9332350061358
 30
0.0
 11
198.88811655384
 21
321.9332350061359
 31
0.0
  0
LINE
  5
2F5
330
71
100
AcDbEntity
  8
1
  6
Continuous
 62
     6
100
AcDbLine
 10
64.343312027091
 20
338.9332350061359
 30
0.0
 11
100.7433120270909
 21
338.9332350061359
 31
0.0
  0
LINE
  5
2F6
330
71
100
AcDbEntity
  8
1
  6
Continuous
 62
     2
100
AcDbLine
 10
193.888116553841
 20
321.9332350061359
 30
0.0
 11
193.888116553841
 21
316.9332350061358
 31
0.0
  0
LINE
  5
2F7
330
71
100
AcDbEntity
  8
1
  6
Continuous
 62
     2
100
AcDbLine
 10
193.888116553841
 20
321.9332350061359
 30
0.0
 11
198.88811655384
 21
321.9332350061359
 31
0.0
  0
LINE
  5
2F8
330
71
100
AcDbEntity
  8
1
  6
Continuous
 62
     6
100
AcDbLine
 10
100.388116553841
 20
321.9332350061359
 30
0.0
 11
82.54331202709102
 21
321.9332350061359
 31
0.0
  0
LINE
  5
2F9
330
71
100
AcDbEntity
  8
1
  6
Continuous
 62
     6
100
AcDbLine
 10
150.388116553841
 20
321.9332350061359
 30
0.0
 11
193.888116553841
 21
321.9332350061359
 31
0.0
  0
LINE
  5
2FA
330
71
100
AcDbEntity
  8
1
  6
Continuous
 62
     6
100
AcDbLine
 10
0.3881165538408
 20
321.9332350061359
 30
0.0
 11
-4.65668797290897
 21
321.9332350061359
 31
0.0
  0
LINE
  5
2FB
330
71
100
AcDbEntity
  8
1
  6
Continuous
 62
     6
100
AcDbLine
 10
50.38811655384103
 20
321.9332350061359
 30
0.0
 11
64.343312027091
 21
321.9332350061358
 31
0.0
  0
LINE
  5
2FC
102
{ACAD_REACTORS
330
3E6
330
3E7
102
}
330
71
100
AcDbEntity
  8
0
  6
Continuous
 62
     2
100
AcDbLine
 10
71.85793796923781
 20
334.005749762348
 30
0.0
 11
71.85793796923781
 21
334.6112850508548
 31
0.0
  0
LINE
  5
2FD
102
{ACAD_REACTORS
330
3E6
330
3E7
102
}
330
71
100
AcDbEntity
  8
0
  6
Continuous
 62
     2
100
AcDbLine
 10
71.85793796923781
 20
331.2056151557167
 30
0.0
 11
71.85793796923781
 21
331.7874665624117
 31
0.0
  0
LINE
  5
2FE
102
{ACAD_REACTORS
330
3E8
330
3E9
102
}
330
71
100
AcDbEntity
  8
0
  6
Continuous
 62
     2
100
AcDbLine
 10
94.48742440471702
 20
331.4952792238397
 30
0.0
 11
94.48742440471702
 21
329.2267350061522
 31
0.0
  0
LINE
  5
2FF
102
{ACAD_REACTORS
330
3E8
330
3E9
102
}
330
71
100
AcDbEntity
  8
0
  6
Continuous
 62
     2
100
AcDbLine
 10
93.10637062572943
 20
332.2805445299628
 30
0.0
 11
96.49131614435811
 21
332.2805445299633
 31
0.0
  0
LINE
  5
300
102
{ACAD_REACTORS
330
3E8
330
3E9
102
}
330
71
100
AcDbEntity
  8
0
  6
Continuous
 62
     2
100
AcDbLine
 10
96.49131614435811
 20
331.4952792238397
 30
0.0
 11
96.49131614435811
 21
332.2805445299633
 31
0.0
  0
LINE
  5
301
102
{ACAD_REACTORS
330
3E8
330
3E9
102
}
330
71
100
AcDbEntity
  8
0
  6
Continuous
 62
     2
100
AcDbLine
 10
95.68021710688473
 20
331.4952792238397
 30
0.0
 11
96.49131614435811
 21
331.4952792238397
 31
0.0
  0
LINE
  5
302
102
{ACAD_REACTORS
330
3E8
330
3E9
102
}
330
71
100
AcDbEntity
  8
0
  6
Continuous
 62
     2
100
AcDbLine
 10
95.68021710688473
 20
329.2267350061522
 30
0.0
 11
95.68021710688473
 21
331.4952792238397
 31
0.0
  0
LINE
  5
303
102
{ACAD_REACTORS
330
3E8
330
3E9
102
}
330
71
100
AcDbEntity
  8
0
  6
Continuous
 62
     2
100
AcDbLine
 10
94.48742440471702
 20
329.2267350061522
 30
0.0
 11
95.68021710688473
 21
329.2267350061522
 31
0.0
  0
LINE
  5
304
102
{ACAD_REACTORS
330
3DE
330
3DF
102
}
330
71
100
AcDbEntity
  8
0
  6
Continuous
 62
     2
100
AcDbLine
 10
93.79083346665251
 20
335.6397350061377
 30
0.0
 11
92.38810924890322
 21
335.6397350061377
 31
0.0
  0
LINE
  5
305
102
{ACAD_REACTORS
330
3DE
330
3DF
102
}
330
71
100
AcDbEntity
  8
0
  6
Continuous
 62
     2
100
AcDbLine
 10
93.79083346665251
 20
335.6397350061377
 30
0.0
 11
94.39200098854431
 21
334.9599116845822
 31
0.0
  0
LINE
  5
306
102
{ACAD_REACTORS
330
3DE
330
3DF
102
}
330
71
100
AcDbEntity
  8
0
  6
Continuous
 62
     2
100
AcDbLine
 10
94.39200098854431
 20
334.9599116845822
 30
0.0
 11
94.9931685104371
 21
335.6397350061377
 31
0.0
  0
LINE
  5
307
102
{ACAD_REACTORS
330
3DE
330
3DF
102
}
330
71
100
AcDbEntity
  8
0
  6
Continuous
 62
     2
100
AcDbLine
 10
95.09336309741781
 20
334.1667844761015
 30
0.0
 11
96.39589272818432
 21
335.6397350061377
 31
0.0
  0
LINE
  5
308
102
{ACAD_REACTORS
330
3DE
330
3DF
102
}
330
71
100
AcDbEntity
  8
0
  6
Continuous
 62
     2
100
AcDbLine
 10
95.09336309741781
 20
334.1667844761015
 30
0.0
 11
96.49131614435811
 21
332.5859254823265
 31
0.0
  0
LINE
  5
309
102
{ACAD_REACTORS
330
3DE
330
3DF
102
}
330
71
100
AcDbEntity
  8
0
  6
Continuous
 62
     2
100
AcDbLine
 10
95.08859192660981
 20
332.5859254823265
 30
0.0
 11
96.49131614435811
 21
332.5859254823265
 31
0.0
  0
LINE
  5
30A
102
{ACAD_REACTORS
330
3DE
330
3DF
102
}
330
71
100
AcDbEntity
  8
0
  6
Continuous
 62
     2
100
AcDbLine
 10
94.39200098854431
 20
333.3736572676202
 30
0.0
 11
95.08859192660981
 21
332.5859254823265
 31
0.0
  0
LINE
  5
30B
102
{ACAD_REACTORS
330
3DC
330
3DD
102
}
330
71
100
AcDbEntity
  8
0
  6
Continuous
 62
     2
100
AcDbLine
 10
90.93290215226062
 20
335.6397350061377
 30
0.0
 11
92.17340656251352
 21
335.6397350061377
 31
0.0
  0
LINE
  5
30C
102
{ACAD_REACTORS
330
3DC
330
3DD
102
}
330
71
100
AcDbEntity
  8
0
  6
Continuous
 62
     2
100
AcDbLine
 10
92.17340656251352
 20
335.6397350061377
 30
0.0
 11
92.17340656251352
 21
332.5859254823265
 31
0.0
  0
LINE
  5
30D
102
{ACAD_REACTORS
330
3DC
330
3DD
102
}
330
71
100
AcDbEntity
  8
0
  6
Continuous
 62
     2
100
AcDbLine
 10
90.93290215226062
 20
332.5859254823265
 30
0.0
 11
90.93290215226062
 21
335.6397350061377
 31
0.0
  0
LINE
  5
30E
102
{ACAD_REACTORS
330
3DA
330
3DB
102
}
330
71
100
AcDbEntity
  8
0
  6
Continuous
 62
     2
100
AcDbLine
 10
89.46459206972301
 20
330.4482588156767
 30
0.0
 11
89.76475730691541
 21
331.2160737816633
 31
0.0
  0
LINE
  5
30F
102
{ACAD_REACTORS
330
3DA
330
3DB
102
}
330
71
100
AcDbEntity
  8
0
  6
Continuous
 62
     2
100
AcDbLine
 10
88.9870564651022
 20
329.2267350061522
 30
0.0
 11
89.19853651857801
 21
329.76769555037
 31
0.0
  0
LINE
  5
310
102
{ACAD_REACTORS
330
3DA
330
3DB
102
}
330
71
100
AcDbEntity
  8
0
  6
Continuous
 62
     2
100
AcDbLine
 10
89.14450510178852
 20
332.2805445299633
 30
0.0
 11
87.74655205484922
 21
329.2267350061522
 31
0.0
  0
LINE
  5
311
102
{ACAD_REACTORS
330
3DA
330
3DB
102
}
330
71
100
AcDbEntity
  8
0
  6
Continuous
 62
     2
100
AcDbLine
 10
91.78296255898152
 20
329.2267350061522
 30
0.0
 11
90.5424581487276
 21
329.2267350061522
 31
0.0
  0
LINE
  5
312
102
{ACAD_REACTORS
330
3DA
330
3DB
102
}
330
71
100
AcDbEntity
  8
0
  6
Continuous
 62
     2
100
AcDbLine
 10
89.19853651857801
 20
329.76769555037
 30
0.0
 11
90.33097809525182
 21
329.76769555037
 31
0.0
  0
LINE
  5
313
102
{ACAD_REACTORS
330
3D8
330
3D9
102
}
330
71
100
AcDbEntity
  8
0
  6
Continuous
 62
     2
100
AcDbLine
 10
85.589039915667
 20
331.4952792238397
 30
0.0
 11
86.4001389531416
 21
331.4952792238397
 31
0.0
  0
LINE
  5
314
102
{ACAD_REACTORS
330
3D8
330
3D9
102
}
330
71
100
AcDbEntity
  8
0
  6
Continuous
 62
     2
100
AcDbLine
 10
88.40403069278062
 20
332.2805445299633
 30
0.0
 11
85.589039915667
 21
332.2805445299633
 31
0.0
  0
LINE
  5
315
102
{ACAD_REACTORS
330
3D8
330
3D9
102
}
330
71
100
AcDbEntity
  8
0
  6
Continuous
 62
     2
100
AcDbLine
 10
88.40403069278062
 20
331.4952792238397
 30
0.0
 11
88.40403069278062
 21
332.2805445299633
 31
0.0
  0
LINE
  5
316
102
{ACAD_REACTORS
330
3D8
330
3D9
102
}
330
71
100
AcDbEntity
  8
0
  6
Continuous
 62
     2
100
AcDbLine
 10
87.59293165530812
 20
331.4952792238397
 30
0.0
 11
88.40403069278062
 21
331.4952792238397
 31
0.0
  0
LINE
  5
317
102
{ACAD_REACTORS
330
3D8
330
3D9
102
}
330
71
100
AcDbEntity
  8
0
  6
Continuous
 62
     2
100
AcDbLine
 10
87.59293165530812
 20
329.2267350061522
 30
0.0
 11
87.59293165530812
 21
331.4952792238397
 31
0.0
  0
LINE
  5
318
102
{ACAD_REACTORS
330
3D6
330
3D7
102
}
330
71
100
AcDbEntity
  8
0
  6
Continuous
 62
     2
100
AcDbLine
 10
88.26104649940612
 20
332.5859254823265
 30
0.0
 11
88.26104649940612
 21
333.8947009925312
 31
0.0
  0
LINE
  5
319
102
{ACAD_REACTORS
330
3D6
330
3D7
102
}
330
71
100
AcDbEntity
  8
0
  6
Continuous
 62
     2
100
AcDbLine
 10
87.0682537972396
 20
335.6397350061377
 30
0.0
 11
87.0682537972396
 21
332.5859254823265
 31
0.0
  0
LINE
  5
31A
102
{ACAD_REACTORS
330
3D6
330
3D7
102
}
330
71
100
AcDbEntity
  8
0
  6
Continuous
 62
     2
100
AcDbLine
 10
88.26104649940612
 20
335.6397350061377
 30
0.0
 11
87.0682537972396
 21
335.6397350061377
 31
0.0
  0
LINE
  5
31B
102
{ACAD_REACTORS
330
3D6
330
3D7
102
}
330
71
100
AcDbEntity
  8
0
  6
Continuous
 62
     2
100
AcDbLine
 10
89.50155090966012
 20
335.6397350061377
 30
0.0
 11
89.50155090966012
 21
334.3309594959325
 31
0.0
  0
LINE
  5
31C
102
{ACAD_REACTORS
330
3D4
330
3D5
102
}
330
71
100
AcDbEntity
  8
0
  6
Continuous
 62
     2
100
AcDbLine
 10
81.81981497681991
 20
332.2805445299633
 30
0.0
 11
81.81981497681991
 21
329.2267350061522
 31
0.0
  0
LINE
  5
31D
102
{ACAD_REACTORS
330
3D4
330
3D5
102
}
330
71
100
AcDbEntity
  8
0
  6
Continuous
 62
     2
100
AcDbLine
 10
83.01260767898751
 20
332.2805445299633
 30
0.0
 11
81.81981497681991
 21
332.2805445299633
 31
0.0
  0
LINE
  5
31E
102
{ACAD_REACTORS
330
3D4
330
3D5
102
}
330
71
100
AcDbEntity
  8
0
  6
Continuous
 62
     2
100
AcDbLine
 10
84.2531120892404
 20
329.2267350061522
 30
0.0
 11
85.4459047914068
 21
329.2267350061522
 31
0.0
  0
LINE
  5
31F
102
{ACAD_REACTORS
330
3D4
330
3D5
102
}
330
71
100
AcDbEntity
  8
0
  6
Continuous
 62
     2
100
AcDbLine
 10
81.81981497681991
 20
329.2267350061522
 30
0.0
 11
83.01260767898751
 21
329.2267350061522
 31
0.0
  0
LINE
  5
320
102
{ACAD_REACTORS
330
3E4
330
3E5
102
}
330
71
100
AcDbEntity
  8
0
  6
Continuous
 62
     2
100
AcDbLine
 10
85.49376743037902
 20
334.461837046953
 30
0.0
 11
85.49376743037902
 21
334.9417214006947
 31
0.0
  0
LINE
  5
321
102
{ACAD_REACTORS
330
3E4
330
3E5
102
}
330
71
100
AcDbEntity
  8
0
  6
Continuous
 62
     2
100
AcDbLine
 10
86.8296952568067
 20
334.461837046953
 30
0.0
 11
85.49376743037902
 21
334.461837046953
 31
0.0
  0
LINE
  5
322
102
{ACAD_REACTORS
330
3E4
330
3E5
102
}
330
71
100
AcDbEntity
  8
0
  6
Continuous
 62
     2
100
AcDbLine
 10
86.8296952568067
 20
333.7638234415107
 30
0.0
 11
86.8296952568067
 21
334.461837046953
 31
0.0
  0
LINE
  5
323
102
{ACAD_REACTORS
330
3E4
330
3E5
102
}
330
71
100
AcDbEntity
  8
0
  6
Continuous
 62
     2
100
AcDbLine
 10
85.49376743037902
 20
333.7638234415107
 30
0.0
 11
86.8296952568067
 21
333.7638234415107
 31
0.0
  0
LINE
  5
324
102
{ACAD_REACTORS
330
3D2
330
3D3
102
}
330
71
100
AcDbEntity
  8
0
  6
Continuous
 62
     2
100
AcDbLine
 10
82.0108127400521
 20
335.6397350061377
 30
0.0
 11
82.0108127400521
 21
332.5859254823265
 31
0.0
  0
LINE
  5
325
102
{ACAD_REACTORS
330
3D2
330
3D3
102
}
330
71
100
AcDbEntity
  8
0
  6
Continuous
 62
     2
100
AcDbLine
 10
82.0108127400521
 20
332.5859254823265
 30
0.0
 11
80.8180200378857
 21
332.5859254823265
 31
0.0
  0
LINE
  5
326
102
{ACAD_REACTORS
330
3D2
330
3D3
102
}
330
71
100
AcDbEntity
  8
0
  6
Continuous
 62
     2
100
AcDbLine
 10
80.8180200378857
 20
332.5859254823265
 30
0.0
 11
80.8180200378857
 21
333.7201975911703
 31
0.0
  0
LINE
  5
327
102
{ACAD_REACTORS
330
3D2
330
3D3
102
}
330
71
100
AcDbEntity
  8
0
  6
Continuous
 62
     2
100
AcDbLine
 10
79.76836245997822
 20
332.5859254823265
 30
0.0
 11
78.57556975781162
 21
332.5859254823265
 31
0.0
  0
LINE
  5
328
102
{ACAD_REACTORS
330
3D2
330
3D3
102
}
330
71
100
AcDbEntity
  8
0
  6
Continuous
 62
     2
100
AcDbLine
 10
78.57556975781162
 20
335.6397350061377
 30
0.0
 11
79.76836245997822
 21
335.6397350061377
 31
0.0
  0
LINE
  5
329
102
{ACAD_REACTORS
330
3D2
330
3D3
102
}
330
71
100
AcDbEntity
  8
0
  6
Continuous
 62
     2
100
AcDbLine
 10
79.76836245997822
 20
335.6397350061377
 30
0.0
 11
79.76836245997822
 21
334.5709016728031
 31
0.0
  0
LINE
  5
32A
102
{ACAD_REACTORS
330
3D2
330
3D3
102
}
330
71
100
AcDbEntity
  8
0
  6
Continuous
 62
     2
100
AcDbLine
 10
79.76836245997822
 20
334.5709016728031
 30
0.0
 11
80.8180200378857
 21
334.5709016728031
 31
0.0
  0
LINE
  5
32B
102
{ACAD_REACTORS
330
3E0
330
3E1
102
}
330
71
100
AcDbEntity
  8
0
  6
Continuous
 62
     2
100
AcDbLine
 10
76.61938972625802
 20
334.9766291606976
 30
0.0
 11
76.93668478779992
 21
334.9766291606976
 31
0.0
  0
LINE
  5
32C
102
{ACAD_REACTORS
330
3E0
330
3E1
102
}
330
71
100
AcDbEntity
  8
0
  6
Continuous
 62
     2
100
AcDbLine
 10
76.61938972625802
 20
334.2709015113554
 30
0.0
 11
76.93668478779992
 21
334.2709015113554
 31
0.0
  0
LINE
  5
32D
102
{ACAD_REACTORS
330
3E0
330
3E1
102
}
330
71
100
AcDbEntity
  8
0
  6
Continuous
 62
     2
100
AcDbLine
 10
75.3788853160039
 20
335.6397350061377
 30
0.0
 11
75.3788853160039
 21
332.5859254823265
 31
0.0
  0
LINE
  5
32E
102
{ACAD_REACTORS
330
3E0
330
3E1
102
}
330
71
100
AcDbEntity
  8
0
  6
Continuous
 62
     2
100
AcDbLine
 10
75.3788853160039
 20
335.6397350061377
 30
0.0
 11
77.3781573140383
 21
335.6397350061377
 31
0.0
  0
LINE
  5
32F
102
{ACAD_REACTORS
330
3E0
330
3E1
102
}
330
71
100
AcDbEntity
  8
0
  6
Continuous
 62
     2
100
AcDbLine
 10
76.61938972625802
 20
333.5290037234703
 30
0.0
 11
77.3781573140383
 21
333.5290037234703
 31
0.0
  0
LINE
  5
330
102
{ACAD_REACTORS
330
3E6
330
3E7
102
}
330
71
100
AcDbEntity
  8
0
  6
Continuous
 62
     2
100
AcDbLine
 10
69.28238928270721
 20
334.6114625275029
 30
0.0
 11
69.28238928270721
 21
330.2550074847858
 31
0.0
  0
LINE
  5
331
102
{ACAD_REACTORS
330
3E6
330
3E7
102
}
330
71
100
AcDbEntity
  8
0
  6
Continuous
 62
     2
100
AcDbLine
 10
69.5981062057829
 20
334.9271794505791
 30
0.0
 11
71.07393946679252
 21
334.9271794505791
 31
0.0
  0
LINE
  5
332
102
{ACAD_REACTORS
330
3E6
330
3E7
102
}
330
71
100
AcDbEntity
  8
0
  6
Continuous
 62
     2
100
AcDbLine
 10
71.38965638986912
 20
334.0074379084424
 30
0.0
 11
71.38965638986912
 21
334.6114625275029
 31
0.0
  0
LINE
  5
333
102
{ACAD_REACTORS
330
3E6
330
3E7
102
}
330
71
100
AcDbEntity
  8
0
  6
Continuous
 62
     2
100
AcDbLine
 10
71.38965638986912
 20
330.2550074847858
 30
0.0
 11
71.38965638986912
 21
331.7857784163174
 31
0.0
  0
LINE
  5
334
102
{ACAD_REACTORS
330
3E6
330
3E7
102
}
330
71
100
AcDbEntity
  8
0
  6
Continuous
 62
     2
100
AcDbLine
 10
74.47752361975321
 20
329.2267350061522
 30
0.0
 11
69.00421152903641
 21
329.2267350061522
 31
0.0
  0
LINE
  5
335
102
{ACAD_REACTORS
330
3E6
330
3E7
102
}
330
71
100
AcDbEntity
  8
0
  6
Continuous
 62
     2
100
AcDbLine
 10
74.9017682351371
 20
335.2154903907357
 30
0.0
 11
74.9017682351371
 21
329.6509796215355
 31
0.0
  0
LINE
  5
336
102
{ACAD_REACTORS
330
3E6
330
3E7
102
}
330
71
100
AcDbEntity
  8
0
  6
Continuous
 62
     2
100
AcDbLine
 10
69.00421152903641
 20
335.6397350061195
 30
0.0
 11
74.47752361975321
 21
335.6397350061195
 31
0.0
  0
LINE
  5
337
102
{ACAD_REACTORS
330
3E6
330
3E7
102
}
330
71
100
AcDbEntity
  8
0
  6
Continuous
 62
     2
100
AcDbLine
 10
68.5799669136536
 20
335.2154903907357
 30
0.0
 11
68.5799669136536
 21
329.6509796215355
 31
0.0
  0
LINE
  5
338
102
{ACAD_REACTORS
330
3E6
330
3E7
102
}
330
71
100
AcDbEntity
  8
0
  6
Continuous
 62
     2
100
AcDbLine
 10
71.07393946679252
 20
329.9392905617091
 30
0.0
 11
69.5981062057829
 21
329.9392905617091
 31
0.0
  0
LINE
  5
339
102
{ACAD_REACTORS
330
3E0
330
3E1
102
}
330
71
100
AcDbEntity
  8
0
  6
Continuous
 62
     2
100
AcDbLine
 10
76.61938972625802
 20
332.5859254823265
 30
0.0
 11
76.61938972625802
 21
333.5290037234703
 31
0.0
  0
LINE
  5
33A
102
{ACAD_REACTORS
330
3E0
330
3E1
102
}
330
71
100
AcDbEntity
  8
0
  6
Continuous
 62
     2
100
AcDbLine
 10
75.3788853160039
 20
332.5859254823265
 30
0.0
 11
76.61938972625802
 21
332.5859254823265
 31
0.0
  0
LINE
  5
33B
102
{ACAD_REACTORS
330
3E0
330
3E1
102
}
330
71
100
AcDbEntity
  8
0
  6
Continuous
 62
     2
100
AcDbLine
 10
76.61938972625802
 20
334.2709015113554
 30
0.0
 11
76.61938972625802
 21
334.9766291606976
 31
0.0
  0
LINE
  5
33C
102
{ACAD_REACTORS
330
3D2
330
3D3
102
}
330
71
100
AcDbEntity
  8
0
  6
Continuous
 62
     2
100
AcDbLine
 10
78.57556975781162
 20
335.6397350061377
 30
0.0
 11
78.57556975781162
 21
332.5859254823265
 31
0.0
  0
LINE
  5
33D
102
{ACAD_REACTORS
330
3D2
330
3D3
102
}
330
71
100
AcDbEntity
  8
0
  6
Continuous
 62
     2
100
AcDbLine
 10
79.76836245997822
 20
333.7201975911703
 30
0.0
 11
79.76836245997822
 21
332.5859254823265
 31
0.0
  0
LINE
  5
33E
102
{ACAD_REACTORS
330
3D2
330
3D3
102
}
330
71
100
AcDbEntity
  8
0
  6
Continuous
 62
     2
100
AcDbLine
 10
80.8180200378857
 20
333.7201975911703
 30
0.0
 11
79.76836245997822
 21
333.7201975911703
 31
0.0
  0
LINE
  5
33F
102
{ACAD_REACTORS
330
3D2
330
3D3
102
}
330
71
100
AcDbEntity
  8
0
  6
Continuous
 62
     2
100
AcDbLine
 10
80.8180200378857
 20
335.6397350061377
 30
0.0
 11
82.0108127400521
 21
335.6397350061377
 31
0.0
  0
LINE
  5
340
102
{ACAD_REACTORS
330
3D2
330
3D3
102
}
330
71
100
AcDbEntity
  8
0
  6
Continuous
 62
     2
100
AcDbLine
 10
80.8180200378857
 20
334.5709016728031
 30
0.0
 11
80.8180200378857
 21
335.6397350061377
 31
0.0
  0
LINE
  5
341
102
{ACAD_REACTORS
330
3E4
330
3E5
102
}
330
71
100
AcDbEntity
  8
0
  6
Continuous
 62
     2
100
AcDbLine
 10
86.8296952568067
 20
334.9417214006947
 30
0.0
 11
86.8296952568067
 21
335.6397350061377
 31
0.0
  0
LINE
  5
342
102
{ACAD_REACTORS
330
3E4
330
3E5
102
}
330
71
100
AcDbEntity
  8
0
  6
Continuous
 62
     2
100
AcDbLine
 10
83.6793755330257
 20
335.6397350061377
 30
0.0
 11
86.8296952568067
 21
335.6397350061377
 31
0.0
  0
LINE
  5
343
102
{ACAD_REACTORS
330
3E4
330
3E5
102
}
330
71
100
AcDbEntity
  8
0
  6
Continuous
 62
     2
100
AcDbLine
 10
83.6793755330257
 20
332.5859254823265
 30
0.0
 11
86.8296952568067
 21
332.5859254823265
 31
0.0
  0
LINE
  5
344
102
{ACAD_REACTORS
330
3E4
330
3E5
102
}
330
71
100
AcDbEntity
  8
0
  6
Continuous
 62
     2
100
AcDbLine
 10
86.8296952568067
 20
332.5859254823265
 30
0.0
 11
86.8296952568067
 21
333.283939087769
 31
0.0
  0
LINE
  5
345
102
{ACAD_REACTORS
330
3E4
330
3E5
102
}
330
71
100
AcDbEntity
  8
0
  6
Continuous
 62
     2
100
AcDbLine
 10
86.8296952568067
 20
333.283939087769
 30
0.0
 11
85.49376743037902
 21
333.283939087769
 31
0.0
  0
LINE
  5
346
102
{ACAD_REACTORS
330
3E4
330
3E5
102
}
330
71
100
AcDbEntity
  8
0
  6
Continuous
 62
     2
100
AcDbLine
 10
85.49376743037902
 20
333.283939087769
 30
0.0
 11
85.49376743037902
 21
333.7638234415107
 31
0.0
  0
LINE
  5
347
102
{ACAD_REACTORS
330
3E4
330
3E5
102
}
330
71
100
AcDbEntity
  8
0
  6
Continuous
 62
     2
100
AcDbLine
 10
85.49376743037902
 20
334.9417214006947
 30
0.0
 11
86.8296952568067
 21
334.9417214006947
 31
0.0
  0
LINE
  5
348
102
{ACAD_REACTORS
330
3D4
330
3D5
102
}
330
71
100
AcDbEntity
  8
0
  6
Continuous
 62
     2
100
AcDbLine
 10
83.01260767898751
 20
329.2267350061522
 30
0.0
 11
83.01260767898751
 21
330.5355105163568
 31
0.0
  0
LINE
  5
349
102
{ACAD_REACTORS
330
3D4
330
3D5
102
}
330
71
100
AcDbEntity
  8
0
  6
Continuous
 62
     2
100
AcDbLine
 10
83.01260767898751
 20
330.5355105163568
 30
0.0
 11
84.2531120892404
 21
329.2267350061522
 31
0.0
  0
LINE
  5
34A
102
{ACAD_REACTORS
330
3D4
330
3D5
102
}
330
71
100
AcDbEntity
  8
0
  6
Continuous
 62
     2
100
AcDbLine
 10
85.4459047914068
 20
329.2267350061522
 30
0.0
 11
85.4459047914068
 21
332.2805445299633
 31
0.0
  0
LINE
  5
34B
102
{ACAD_REACTORS
330
3D4
330
3D5
102
}
330
71
100
AcDbEntity
  8
0
  6
Continuous
 62
     2
100
AcDbLine
 10
85.4459047914068
 20
332.2805445299633
 30
0.0
 11
84.2531120892404
 21
332.2805445299633
 31
0.0
  0
LINE
  5
34C
102
{ACAD_REACTORS
330
3D4
330
3D5
102
}
330
71
100
AcDbEntity
  8
0
  6
Continuous
 62
     2
100
AcDbLine
 10
84.2531120892404
 20
332.2805445299633
 30
0.0
 11
84.2531120892404
 21
330.9717690197582
 31
0.0
  0
LINE
  5
34D
102
{ACAD_REACTORS
330
3D4
330
3D5
102
}
330
71
100
AcDbEntity
  8
0
  6
Continuous
 62
     2
100
AcDbLine
 10
84.2531120892404
 20
330.9717690197582
 30
0.0
 11
83.01260767898751
 21
332.2805445299633
 31
0.0
  0
LINE
  5
34E
102
{ACAD_REACTORS
330
3D6
330
3D7
102
}
330
71
100
AcDbEntity
  8
0
  6
Continuous
 62
     2
100
AcDbLine
 10
88.26104649940612
 20
333.8947009925312
 30
0.0
 11
89.50155090966012
 21
332.5859254823265
 31
0.0
  0
LINE
  5
34F
102
{ACAD_REACTORS
330
3D6
330
3D7
102
}
330
71
100
AcDbEntity
  8
0
  6
Continuous
 62
     2
100
AcDbLine
 10
89.50155090966012
 20
332.5859254823265
 30
0.0
 11
90.69434361182672
 21
332.5859254823265
 31
0.0
  0
LINE
  5
350
102
{ACAD_REACTORS
330
3D6
330
3D7
102
}
330
71
100
AcDbEntity
  8
0
  6
Continuous
 62
     2
100
AcDbLine
 10
90.69434361182672
 20
332.5859254823265
 30
0.0
 11
90.69434361182672
 21
335.6397350061377
 31
0.0
  0
LINE
  5
351
102
{ACAD_REACTORS
330
3D6
330
3D7
102
}
330
71
100
AcDbEntity
  8
0
  6
Continuous
 62
     2
100
AcDbLine
 10
90.69434361182672
 20
335.6397350061377
 30
0.0
 11
89.50155090966012
 21
335.6397350061377
 31
0.0
  0
LINE
  5
352
102
{ACAD_REACTORS
330
3D6
330
3D7
102
}
330
71
100
AcDbEntity
  8
0
  6
Continuous
 62
     2
100
AcDbLine
 10
89.50155090966012
 20
334.3309594959325
 30
0.0
 11
88.26104649940612
 21
335.6397350061377
 31
0.0
  0
LINE
  5
353
102
{ACAD_REACTORS
330
3D6
330
3D7
102
}
330
71
100
AcDbEntity
  8
0
  6
Continuous
 62
     2
100
AcDbLine
 10
87.0682537972396
 20
332.5859254823265
 30
0.0
 11
88.26104649940612
 21
332.5859254823265
 31
0.0
  0
LINE
  5
354
102
{ACAD_REACTORS
330
3D8
330
3D9
102
}
330
71
100
AcDbEntity
  8
0
  6
Continuous
 62
     2
100
AcDbLine
 10
85.589039915667
 20
332.2805445299633
 30
0.0
 11
85.589039915667
 21
331.4952792238397
 31
0.0
  0
LINE
  5
355
102
{ACAD_REACTORS
330
3D8
330
3D9
102
}
330
71
100
AcDbEntity
  8
0
  6
Continuous
 62
     2
100
AcDbLine
 10
86.4001389531416
 20
331.4952792238397
 30
0.0
 11
86.4001389531416
 21
329.2267350061522
 31
0.0
  0
LINE
  5
356
102
{ACAD_REACTORS
330
3D8
330
3D9
102
}
330
71
100
AcDbEntity
  8
0
  6
Continuous
 62
     2
100
AcDbLine
 10
86.4001389531416
 20
329.2267350061522
 30
0.0
 11
87.59293165530812
 21
329.2267350061522
 31
0.0
  0
LINE
  5
357
102
{ACAD_REACTORS
330
3DA
330
3DB
102
}
330
71
100
AcDbEntity
  8
0
  6
Continuous
 62
     2
100
AcDbLine
 10
90.5424581487276
 20
329.2267350061522
 30
0.0
 11
90.33097809525182
 21
329.76769555037
 31
0.0
  0
LINE
  5
358
102
{ACAD_REACTORS
330
3DA
330
3DB
102
}
330
71
100
AcDbEntity
  8
0
  6
Continuous
 62
     2
100
AcDbLine
 10
90.38500951204122
 20
332.2805445299633
 30
0.0
 11
91.78296255898152
 21
329.2267350061522
 31
0.0
  0
LINE
  5
359
102
{ACAD_REACTORS
330
3DA
330
3DB
102
}
330
71
100
AcDbEntity
  8
0
  6
Continuous
 62
     2
100
AcDbLine
 10
89.14450510178852
 20
332.2805445299633
 30
0.0
 11
90.38500951204122
 21
332.2805445299633
 31
0.0
  0
LINE
  5
35A
102
{ACAD_REACTORS
330
3DA
330
3DB
102
}
330
71
100
AcDbEntity
  8
0
  6
Continuous
 62
     2
100
AcDbLine
 10
87.74655205484922
 20
329.2267350061522
 30
0.0
 11
88.9870564651022
 21
329.2267350061522
 31
0.0
  0
LINE
  5
35B
102
{ACAD_REACTORS
330
3DA
330
3DB
102
}
330
71
100
AcDbEntity
  8
0
  6
Continuous
 62
     2
100
AcDbLine
 10
89.46459206972301
 20
330.4482588156767
 30
0.0
 11
90.06492254410551
 21
330.4482588156767
 31
0.0
  0
LINE
  5
35C
102
{ACAD_REACTORS
330
3DA
330
3DB
102
}
330
71
100
AcDbEntity
  8
0
  6
Continuous
 62
     2
100
AcDbLine
 10
90.06492254410551
 20
330.4482588156767
 30
0.0
 11
89.76475730691541
 21
331.2160737816633
 31
0.0
  0
LINE
  5
35D
102
{ACAD_REACTORS
330
3DC
330
3DD
102
}
330
71
100
AcDbEntity
  8
0
  6
Continuous
 62
     2
100
AcDbLine
 10
92.17340656251352
 20
332.5859254823265
 30
0.0
 11
90.93290215226062
 21
332.5859254823265
 31
0.0
  0
LINE
  5
35E
102
{ACAD_REACTORS
330
3DE
330
3DF
102
}
330
71
100
AcDbEntity
  8
0
  6
Continuous
 62
     2
100
AcDbLine
 10
93.69541005047861
 20
332.5859254823265
 30
0.0
 11
92.2926858327304
 21
332.5859254823265
 31
0.0
  0
LINE
  5
35F
102
{ACAD_REACTORS
330
3DE
330
3DF
102
}
330
71
100
AcDbEntity
  8
0
  6
Continuous
 62
     2
100
AcDbLine
 10
93.69541005047861
 20
332.5859254823265
 30
0.0
 11
94.39200098854431
 21
333.3736572676202
 31
0.0
  0
LINE
  5
360
102
{ACAD_REACTORS
330
3DE
330
3DF
102
}
330
71
100
AcDbEntity
  8
0
  6
Continuous
 62
     2
100
AcDbLine
 10
94.9931685104371
 20
335.6397350061377
 30
0.0
 11
96.39589272818432
 21
335.6397350061377
 31
0.0
  0
LINE
  5
361
102
{ACAD_REACTORS
330
3DE
330
3DF
102
}
330
71
100
AcDbEntity
  8
0
  6
Continuous
 62
     2
100
AcDbLine
 10
92.38810924890322
 20
335.6397350061377
 30
0.0
 11
93.6906388796707
 21
334.1667844761015
 31
0.0
  0
LINE
  5
362
102
{ACAD_REACTORS
330
3DE
330
3DF
102
}
330
71
100
AcDbEntity
  8
0
  6
Continuous
 62
     2
100
AcDbLine
 10
92.2926858327304
 20
332.5859254823265
 30
0.0
 11
93.6906388796707
 21
334.1667844761015
 31
0.0
  0
LINE
  5
363
102
{ACAD_REACTORS
330
3E8
330
3E9
102
}
330
71
100
AcDbEntity
  8
0
  6
Continuous
 62
     2
100
AcDbLine
 10
94.15344244811033
 20
330.2737554143158
 30
0.0
 11
94.15344244811033
 21
329.4012384075124
 31
0.0
  0
LINE
  5
364
102
{ACAD_REACTORS
330
3E8
330
3E9
102
}
330
71
100
AcDbEntity
  8
0
  6
Continuous
 62
     2
100
AcDbLine
 10
93.38378510514892
 20
331.4952792238397
 30
0.0
 11
94.48742440471702
 21
331.4952792238397
 31
0.0
  0
LINE
  5
365
102
{ACAD_REACTORS
330
3EA
330
3EB
102
}
330
71
100
AcDbEntity
  8
0
  6
Continuous
 62
     2
100
AcDbLine
 10
78.0507409688584
 20
330.2737554143163
 30
0.0
 11
78.0507409688584
 21
329.4012384075131
 31
0.0
  0
LINE
  5
366
102
{ACAD_REACTORS
330
3EA
330
3EB
102
}
330
71
100
AcDbEntity
  8
0
  6
Continuous
 62
     2
100
AcDbLine
 10
78.0507409688584
 20
331.2335241217992
 30
0.0
 11
78.0507409688584
 21
332.1060411286024
 31
0.0
  0
LINE
  5
367
330
71
100
AcDbEntity
  8
1
  6
Continuous
 62
     7
100
AcDbLine
 10
193.8881165538423
 20
330.4332350061359
 30
0.0
 11
100.7433120270909
 21
330.4332350061359
 31
0.0
  0
LINE
  5
368
330
71
100
AcDbEntity
  8
1
  6
Continuous
 62
     6
100
AcDbLine
 10
-4.65668797290897
 20
321.9332350061359
 30
0.0
 11
-49.61188344615897
 21
321.9332350061359
 31
0.0
  0
LINE
  5
369
330
71
100
AcDbEntity
  8
1
  6
Continuous
 62
     7
100
AcDbLine
 10
184.9697082721635
 20
347.4332350061359
 30
0.0
 11
184.9697082721635
 21
338.9332350061359
 31
0.0
  0
LINE
  5
36A
330
71
100
AcDbEntity
  8
1
  6
Continuous
 62
     7
100
AcDbLine
 10
158.4697082721639
 20
347.4332350061359
 30
0.0
 11
158.4697082721639
 21
338.9332350061359
 31
0.0
  0
LINE
  5
36B
330
71
100
AcDbEntity
  8
1
  6
Continuous
 62
     7
100
AcDbLine
 10
100.7433120270909
 20
338.9332350061359
 30
0.0
 11
100.7433120270909
 21
347.4332350061359
 31
0.0
  0
LINE
  5
36C
330
71
100
AcDbEntity
  8
1
  6
Continuous
 62
     7
100
AcDbLine
 10
64.343312027091
 20
338.9332350061359
 30
0.0
 11
64.343312027091
 21
347.4332350061359
 31
0.0
  0
LINE
  5
36D
330
71
100
AcDbEntity
  8
1
  6
Continuous
 62
     6
100
AcDbLine
 10
100.7433120270909
 20
338.9332350061359
 30
0.0
 11
193.8881165538427
 21
338.9332350061359
 31
0.0
  0
LINE
  5
36E
330
71
100
AcDbEntity
  8
1
  6
Continuous
 62
     7
100
AcDbLine
 10
128.643312027091
 20
330.4332350061358
 30
0.0
 11
128.643312027091
 21
338.9332350061359
 31
0.0
  0
LINE
  5
36F
330
71
100
AcDbEntity
  8
1
  6
PHANTOM
 62
     2
100
AcDbLine
 10
79.8299669136536
 20
343.0582350061358
 30
0.0
 11
74.3299669136536
 21
343.0582350061358
 31
0.0
  0
LINE
  5
370
330
71
100
AcDbEntity
  8
1
  6
PHANTOM
 62
     2
100
AcDbLine
 10
77.0799669136536
 20
345.8082350061358
 30
0.0
 11
77.0799669136536
 21
340.3082350061358
 31
0.0
  0
LINE
  5
371
330
71
100
AcDbEntity
  8
1
  6
DOT_CENTER
 62
     2
100
AcDbLine
 10
68.3299669136536
 20
343.0582350061358
 30
0.0
 11
73.8299669136536
 21
343.0582350061358
 31
0.0
  0
ARC
  5
372
102
{ACAD_REACTORS
330
3EA
330
3EB
102
}
330
71
100
AcDbEntity
  8
0
  6
Continuous
 62
     2
100
AcDbCircle
 10
76.7148130517406
 20
327.4409588228016
 30
0.0
 40
4.852596863497986
100
AcDbArc
 50
74.0200087416471
 51
84.84185523037509
  0
ARC
  5
373
102
{ACAD_REACTORS
330
3EA
330
3EB
102
}
330
71
100
AcDbEntity
  8
0
  6
Continuous
 62
     2
100
AcDbCircle
 10
77.29085366049432
 20
330.5967191786859
 30
0.0
 40
0.9059297849853768
100
AcDbArc
 50
71.55192388185462
 51
113.372277888129
  0
ARC
  5
374
102
{ACAD_REACTORS
330
3EA
330
3EB
102
}
330
71
100
AcDbEntity
  8
0
  6
Continuous
 62
     2
100
AcDbCircle
 10
77.1344136277923
 20
330.548568338719
 30
0.0
 40
0.5115800601948034
100
AcDbArc
 50
208.5214732576956
 51
246.6277221118274
  0
ARC
  5
375
102
{ACAD_REACTORS
330
3EA
330
3EB
102
}
330
71
100
AcDbEntity
  8
0
  6
Continuous
 62
     2
100
AcDbCircle
 10
77.29085366049432
 20
330.910560357429
 30
0.0
 40
0.9059297849849192
100
AcDbArc
 50
246.627722111871
 51
288.4480761181579
  0
ARC
  5
376
102
{ACAD_REACTORS
330
3EA
330
3EB
102
}
330
71
100
AcDbEntity
  8
0
  6
Continuous
 62
     2
100
AcDbCircle
 10
76.87268592683353
 20
332.1641061334661
 30
0.0
 40
2.227384008972656
100
AcDbArc
 50
288.4480761181335
 51
301.9309089499612
  0
ARC
  5
377
102
{ACAD_REACTORS
330
3E6
330
3E7
102
}
330
71
100
AcDbEntity
  8
0
  6
Continuous
 62
     2
100
AcDbCircle
 10
71.64761219422672
 20
332.8966081623802
 30
0.0
 40
0.9118481501444333
100
AcDbArc
 50
295.3740086781772
 51
64.625991321809
  0
ARC
  5
378
102
{ACAD_REACTORS
330
3E6
330
3E7
102
}
330
71
100
AcDbEntity
  8
0
  6
Continuous
 62
     2
100
AcDbCircle
 10
72.1736548923146
 20
334.6112850508548
 30
0.0
 40
0.3157169230760711
100
AcDbArc
 50
90.18896704254594
 51
180.0
  0
ARC
  5
379
102
{ACAD_REACTORS
330
3E8
330
3E9
102
}
330
71
100
AcDbEntity
  8
0
  6
Continuous
 62
     2
100
AcDbCircle
 10
93.38378510514892
 20
330.5407562170136
 30
0.0
 40
0.9545230068260935
100
AcDbArc
 50
90.0
 51
109.337143219432
  0
ARC
  5
37A
102
{ACAD_REACTORS
330
3E8
330
3E9
102
}
330
71
100
AcDbEntity
  8
0
  6
Continuous
 62
     2
100
AcDbCircle
 10
93.6144723651266
 20
330.7536397680575
 30
0.0
 40
0.941059735334906
100
AcDbArc
 50
151.4785267423609
 51
208.5214732576695
  0
ARC
  5
37B
102
{ACAD_REACTORS
330
3E8
330
3E9
102
}
330
71
100
AcDbEntity
  8
0
  6
Continuous
 62
     2
100
AcDbCircle
 10
93.39355513974832
 20
330.910560357429
 30
0.0
 40
0.9059297849852801
100
AcDbArc
 50
246.6277221118183
 51
288.4480761180817
  0
ARC
  5
37C
102
{ACAD_REACTORS
330
3E8
330
3E9
102
}
330
71
100
AcDbEntity
  8
0
  6
Continuous
 62
     2
100
AcDbCircle
 10
92.97538740608641
 20
332.1641061334656
 30
0.0
 40
2.227384008972773
100
AcDbArc
 50
288.4480761181333
 51
301.9309089499394
  0
ARC
  5
37D
102
{ACAD_REACTORS
330
3E8
330
3E9
102
}
330
71
100
AcDbEntity
  8
0
  6
Continuous
 62
     2
100
AcDbCircle
 10
92.8175145309936
 20
334.0663207133139
 30
0.0
 40
4.852596863498881
100
AcDbArc
 50
275.1581447696363
 51
285.9799912583382
  0
ARC
  5
37E
102
{ACAD_REACTORS
330
3E8
330
3E9
102
}
330
71
100
AcDbEntity
  8
0
  6
Continuous
 62
     2
100
AcDbCircle
 10
93.10637062572943
 20
330.8664301300923
 30
0.0
 40
1.639695123940448
100
AcDbArc
 50
195.0618917771012
 51
275.1581447696762
  0
ARC
  5
37F
102
{ACAD_REACTORS
330
3E0
330
3E1
102
}
330
71
100
AcDbEntity
  8
0
  6
Continuous
 62
     2
100
AcDbCircle
 10
77.3781573140383
 20
334.584369364804
 30
0.0
 40
1.055365641333708
100
AcDbArc
 50
270.0
 51
90.0
  0
ARC
  5
380
102
{ACAD_REACTORS
330
3E6
330
3E7
102
}
330
71
100
AcDbEntity
  8
0
  6
Continuous
 62
     2
100
AcDbCircle
 10
69.5981062057829
 20
330.2550074847858
 30
0.0
 40
0.3157169230756836
100
AcDbArc
 50
180.0
 51
270.0
  0
ARC
  5
381
102
{ACAD_REACTORS
330
3E6
330
3E7
102
}
330
71
100
AcDbEntity
  8
0
  6
Continuous
 62
     2
100
AcDbCircle
 10
71.07393946679252
 20
334.6114625275029
 30
0.0
 40
0.315716923076593
100
AcDbArc
 50
0.0
 51
90.0
  0
ARC
  5
382
102
{ACAD_REACTORS
330
3E6
330
3E7
102
}
330
71
100
AcDbEntity
  8
0
  6
Continuous
 62
     2
100
AcDbCircle
 10
71.07393946679252
 20
334.0074379084424
 30
0.0
 40
0.3157169230761203
100
AcDbArc
 50
295.1944106485397
 51
0.0
  0
ARC
  5
383
102
{ACAD_REACTORS
330
3E6
330
3E7
102
}
330
71
100
AcDbEntity
  8
0
  6
Continuous
 62
     2
100
AcDbCircle
 10
71.07393946679252
 20
330.2550074847858
 30
0.0
 40
0.3157169230767067
100
AcDbArc
 50
270.0
 51
0.0
  0
ARC
  5
384
102
{ACAD_REACTORS
330
3E6
330
3E7
102
}
330
71
100
AcDbEntity
  8
0
  6
Continuous
 62
     2
100
AcDbCircle
 10
69.00421152903641
 20
335.2154903907357
 30
0.0
 40
0.4242446153838273
100
AcDbArc
 50
90.0
 51
180.0
  0
ARC
  5
385
102
{ACAD_REACTORS
330
3E6
330
3E7
102
}
330
71
100
AcDbEntity
  8
0
  6
Continuous
 62
     2
100
AcDbCircle
 10
74.47752361975321
 20
335.2154903907357
 30
0.0
 40
0.4242446153838841
100
AcDbArc
 50
0.0
 51
90.0
  0
ARC
  5
386
102
{ACAD_REACTORS
330
3E6
330
3E7
102
}
330
71
100
AcDbEntity
  8
0
  6
Continuous
 62
     2
100
AcDbCircle
 10
74.47752361975321
 20
329.6509796215355
 30
0.0
 40
0.4242446153833157
100
AcDbArc
 50
270.0
 51
0.0
  0
ARC
  5
387
102
{ACAD_REACTORS
330
3E4
330
3E5
102
}
330
71
100
AcDbEntity
  8
0
  6
Continuous
 62
     2
100
AcDbCircle
 10
83.69590750684472
 20
334.1128302442318
 30
0.0
 40
0.7717997786797075
100
AcDbArc
 50
321.8795802028371
 51
38.12041979715956
  0
ARC
  5
388
102
{ACAD_REACTORS
330
3E4
330
3E5
102
}
330
71
100
AcDbEntity
  8
0
  6
Continuous
 62
     2
100
AcDbCircle
 10
83.8956475431909
 20
333.9560990661114
 30
0.0
 40
0.5179085730135072
100
AcDbArc
 50
218.120419797161
 51
321.8795802028467
  0
ARC
  5
389
102
{ACAD_REACTORS
330
3E2
330
3E3
102
}
330
71
100
AcDbEntity
  8
0
  6
Continuous
 62
     2
100
AcDbCircle
 10
80.21563995423071
 20
330.7536397680575
 30
0.0
 40
1.458034083651977
100
AcDbArc
 50
297.5481481757016
 51
62.45185182429947
  0
ARC
  5
38A
102
{ACAD_REACTORS
330
3E2
330
3E3
102
}
330
71
100
AcDbEntity
  8
0
  6
Continuous
 62
     2
100
AcDbCircle
 10
79.65376017056411
 20
330.7536397680575
 30
0.0
 40
1.458034083651515
100
AcDbArc
 50
117.5481481756619
 51
242.451851824337
  0
ARC
  5
38B
102
{ACAD_REACTORS
330
3E2
330
3E3
102
}
330
71
100
AcDbEntity
  8
0
  6
Continuous
 62
     2
100
AcDbCircle
 10
79.93470006239741
 20
330.2150647577547
 30
0.0
 40
2.065479772208593
100
AcDbArc
 50
62.45185182430674
 51
117.548148175666
  0
ARC
  5
38C
102
{ACAD_REACTORS
330
3E2
330
3E3
102
}
330
71
100
AcDbEntity
  8
0
  6
Continuous
 62
     2
100
AcDbCircle
 10
79.93470006239741
 20
331.2922147783607
 30
0.0
 40
2.065479772208382
100
AcDbArc
 50
242.4518518243383
 51
297.5481481756889
  0
ARC
  5
38D
102
{ACAD_REACTORS
330
3E4
330
3E5
102
}
330
71
100
AcDbEntity
  8
0
  6
Continuous
 62
     2
100
AcDbCircle
 10
84.0953875795372
 20
334.1128302442318
 30
0.0
 40
0.7717997786796724
100
AcDbArc
 50
141.8795802028404
 51
218.1204197971629
  0
ARC
  5
38E
102
{ACAD_REACTORS
330
3E4
330
3E5
102
}
330
71
100
AcDbEntity
  8
0
  6
Continuous
 62
     2
100
AcDbCircle
 10
83.8956475431909
 20
334.2695614223522
 30
0.0
 40
0.5179085730135967
100
AcDbArc
 50
38.12041979715324
 51
141.879580202839
  0
ARC
  5
38F
102
{ACAD_REACTORS
330
3E6
330
3E7
102
}
330
71
100
AcDbEntity
  8
0
  6
Continuous
 62
     2
100
AcDbCircle
 10
69.00421152903641
 20
329.6509796215355
 30
0.0
 40
0.4242446153828041
100
AcDbArc
 50
180.0
 51
270.0
  0
ARC
  5
390
102
{ACAD_REACTORS
330
3E6
330
3E7
102
}
330
71
100
AcDbEntity
  8
0
  6
Continuous
 62
     2
100
AcDbCircle
 10
71.07393946679252
 20
331.7857784163174
 30
0.0
 40
0.315716923076593
100
AcDbArc
 50
0.0
 51
64.80558935146468
  0
ARC
  5
391
102
{ACAD_REACTORS
330
3E6
330
3E7
102
}
330
71
100
AcDbEntity
  8
0
  6
Continuous
 62
     2
100
AcDbCircle
 10
71.59652391436751
 20
332.8966081623802
 30
0.0
 40
0.9118975235576403
100
AcDbArc
 50
115.1944106485275
 51
244.8055893514862
  0
ARC
  5
392
102
{ACAD_REACTORS
330
3E6
330
3E7
102
}
330
71
100
AcDbEntity
  8
0
  6
Continuous
 62
     2
100
AcDbCircle
 10
69.5981062057829
 20
334.6114625275029
 30
0.0
 40
0.3157169230761951
100
AcDbArc
 50
90.0
 51
180.0
  0
ARC
  5
393
102
{ACAD_REACTORS
330
3E0
330
3E1
102
}
330
71
100
AcDbEntity
  8
0
  6
Continuous
 62
     2
100
AcDbCircle
 10
76.93668478779992
 20
334.6237653360265
 30
0.0
 40
0.3528638246710898
100
AcDbArc
 50
270.0
 51
90.0
  0
ARC
  5
394
102
{ACAD_REACTORS
330
3E4
330
3E5
102
}
330
71
100
AcDbEntity
  8
0
  6
Continuous
 62
     2
100
AcDbCircle
 10
83.6793755330257
 20
334.1128302442318
 30
0.0
 40
1.526904761905882
100
AcDbArc
 50
90.0
 51
270.0
  0
ARC
  5
395
102
{ACAD_REACTORS
330
3E8
330
3E9
102
}
330
71
100
AcDbEntity
  8
0
  6
Continuous
 62
     2
100
AcDbCircle
 10
93.10637062572943
 20
330.6408494060225
 30
0.0
 40
1.639695123940328
100
AcDbArc
 50
90.0
 51
164.9381082228911
  0
ARC
  5
396
102
{ACAD_REACTORS
330
3E8
330
3E9
102
}
330
71
100
AcDbEntity
  8
0
  6
Continuous
 62
     2
100
AcDbCircle
 10
92.68724278226782
 20
330.7536397680575
 30
0.0
 40
1.205656168393002
100
AcDbArc
 50
164.9381082229028
 51
195.0618917770972
  0
ARC
  5
397
102
{ACAD_REACTORS
330
3E8
330
3E9
102
}
330
71
100
AcDbEntity
  8
0
  6
Continuous
 62
     2
100
AcDbCircle
 10
93.23711510704521
 20
330.548568338719
 30
0.0
 40
0.5115800601960215
100
AcDbArc
 50
208.5214732576866
 51
246.6277221118449
  0
ARC
  5
398
102
{ACAD_REACTORS
330
3E8
330
3E9
102
}
330
71
100
AcDbEntity
  8
0
  6
Continuous
 62
     2
100
AcDbCircle
 10
93.23711510704521
 20
330.9587111973965
 30
0.0
 40
0.5115800601944143
100
AcDbArc
 50
109.3371432194853
 51
151.4785267424197
  0
ARC
  5
399
102
{ACAD_REACTORS
330
3E6
330
3E7
102
}
330
71
100
AcDbEntity
  8
0
  6
Continuous
 62
     2
100
AcDbCircle
 10
72.1736548923146
 20
331.2056151557167
 30
0.0
 40
0.315716923076792
100
AcDbArc
 50
180.0
 51
269.8110329574542
  0
ARC
  5
39A
102
{ACAD_REACTORS
330
3E6
330
3E7
102
}
330
71
100
AcDbEntity
  8
0
  6
Continuous
 62
     2
100
AcDbCircle
 10
72.17927102762462
 20
332.9084501032857
 30
0.0
 40
2.01856113193338
100
AcDbArc
 50
269.8110329575858
 51
90.18896704241416
  0
ARC
  5
39B
102
{ACAD_REACTORS
330
3E6
330
3E7
102
}
330
71
100
AcDbEntity
  8
0
  6
Continuous
 62
     2
100
AcDbCircle
 10
72.1736548923146
 20
334.005749762348
 30
0.0
 40
0.315716923076792
100
AcDbArc
 50
180.0
 51
244.6259913216437
  0
ARC
  5
39C
102
{ACAD_REACTORS
330
3E6
330
3E7
102
}
330
71
100
AcDbEntity
  8
0
  6
Continuous
 62
     2
100
AcDbCircle
 10
72.1736548923146
 20
331.7874665624117
 30
0.0
 40
0.3157169230766355
100
AcDbArc
 50
115.374008678343
 51
180.0
  0
ARC
  5
39D
102
{ACAD_REACTORS
330
3EA
330
3EB
102
}
330
71
100
AcDbEntity
  8
0
  6
Continuous
 62
     2
100
AcDbCircle
 10
77.00366914647651
 20
330.6408494060225
 30
0.0
 40
1.63969512394062
100
AcDbArc
 50
84.84185523036271
 51
164.9381082228826
  0
ARC
  5
39E
102
{ACAD_REACTORS
330
3EA
330
3EB
102
}
330
71
100
AcDbEntity
  8
0
  6
Continuous
 62
     2
100
AcDbCircle
 10
76.58454130301371
 20
330.7536397680575
 30
0.0
 40
1.205656168390944
100
AcDbArc
 50
164.9381082228765
 51
195.0618917770948
  0
ARC
  5
39F
102
{ACAD_REACTORS
330
3EA
330
3EB
102
}
330
71
100
AcDbEntity
  8
0
  6
Continuous
 62
     2
100
AcDbCircle
 10
77.00366914647651
 20
330.8664301300923
 30
0.0
 40
1.63969512393938
100
AcDbArc
 50
195.0618917770886
 51
275.1581447696396
  0
ARC
  5
3A0
102
{ACAD_REACTORS
330
3EA
330
3EB
102
}
330
71
100
AcDbEntity
  8
0
  6
Continuous
 62
     2
100
AcDbCircle
 10
76.7148130517406
 20
334.0663207133139
 30
0.0
 40
4.852596863498166
100
AcDbArc
 50
275.1581447696249
 51
285.9799912583529
  0
ARC
  5
3A1
102
{ACAD_REACTORS
330
3EA
330
3EB
102
}
330
71
100
AcDbEntity
  8
0
  6
Continuous
 62
     2
100
AcDbCircle
 10
77.51177088587261
 20
330.7536397680575
 30
0.0
 40
0.9410597353332545
100
AcDbArc
 50
151.4785267422669
 51
208.5214732577057
  0
ARC
  5
3A2
102
{ACAD_REACTORS
330
3EA
330
3EB
102
}
330
71
100
AcDbEntity
  8
0
  6
Continuous
 62
     2
100
AcDbCircle
 10
77.1344136277923
 20
330.9587111973965
 30
0.0
 40
0.5115800601948517
100
AcDbArc
 50
113.3722778882004
 51
151.4785267423044
  0
ARC
  5
3A3
102
{ACAD_REACTORS
330
3EA
330
3EB
102
}
330
71
100
AcDbEntity
  8
0
  6
Continuous
 62
     2
100
AcDbCircle
 10
76.87268592683353
 20
329.3431734026493
 30
0.0
 40
2.227384008973453
100
AcDbArc
 50
58.06909105004033
 51
71.55192388186745
  0
ARC
  5
3A4
102
{ACAD_REACTORS
330
3E2
330
3E3
102
}
330
71
100
AcDbEntity
  8
0
  6
Continuous
 62
     2
100
AcDbCircle
 10
79.93470006239741
 20
330.910370946178
 30
0.0
 40
0.5179085730133349
100
AcDbArc
 50
38.12041979715197
 51
141.8795802028538
  0
ARC
  5
3A5
102
{ACAD_REACTORS
330
3E2
330
3E3
102
}
330
71
100
AcDbEntity
  8
0
  6
Continuous
 62
     2
100
AcDbCircle
 10
80.13444009874351
 20
330.7536397680575
 30
0.0
 40
0.7717997786794808
100
AcDbArc
 50
141.8795802028346
 51
218.1204197971687
  0
ARC
  5
3A6
102
{ACAD_REACTORS
330
3E2
330
3E3
102
}
330
71
100
AcDbEntity
  8
0
  6
Continuous
 62
     2
100
AcDbCircle
 10
79.93470006239741
 20
330.5969085899375
 30
0.0
 40
0.5179085730137529
100
AcDbArc
 50
218.1204197971956
 51
321.8795802027985
  0
ARC
  5
3A7
102
{ACAD_REACTORS
330
3E2
330
3E3
102
}
330
71
100
AcDbEntity
  8
0
  6
Continuous
 62
     2
100
AcDbCircle
 10
79.734960026051
 20
330.7536397680575
 30
0.0
 40
0.7717997786796947
100
AcDbArc
 50
321.8795802028417
 51
38.12041979715494
  0
CIRCLE
  5
3A8
330
71
100
AcDbEntity
  8
1
  6
Continuous
 62
     2
100
AcDbCircle
 10
77.0799669136536
 20
343.0582350061358
 30
0.0
 40
2.5
  0
CIRCLE
  5
3A9
330
71
100
AcDbEntity
  8
1
  6
Continuous
 62
     2
100
AcDbCircle
 10
77.0799669136536
 20
343.0582350061358
 30
0.0
 40
1.249999999999915
  0
CIRCLE
  5
3AA
102
{ACAD_REACTORS
330
3E6
330
3E7
102
}
330
71
100
AcDbEntity
  8
0
  6
Continuous
 62
     2
100
AcDbCircle
 10
71.62379717955392
 20
332.8966081623802
 30
0.0
 40
0.4709789327785074
  0
MTEXT
  5
3AB
330
71
100
AcDbEntity
  8
1
 62
     3
100
AcDbMText
 10
-93.1068156600872
 20
508.7245431614347
 30
0.0
 40
1.8
 41
0.0
 71
     7
 72
     1
  3
Weitergabe sowie Vervielf\U+00e4ltigung dieses Dokuments, Verwertung und \PMitteilung seines Inhalts sind verboten, soweit nicht ausdr\U+00fccklich gestattet. \PZuwiderhandlungen verpflichten zu Schadenersatz. Alle Rechte f\U+00fcr den Fall\Pder Pat
  1
ent-, Gebrauchsmuster- oder Designeintragung vorbehalten.
  7
CONVERTER_11
 73
     1
 44
0.99639855942377
  0
MTEXT
  5
3AC
330
71
100
AcDbEntity
  8
1
 62
     3
100
AcDbMText
 10
89.74629417870091
 20
508.7245431614347
 30
0.0
 40
1.8
 41
0.0
 71
     7
 72
     1
  3
Transfer or duplication of this document as well as the utilisation or\Pcommunication of its content are not permitted unless express consent\Pis granted. Violations give rise to claims for damages. All rights reserved\Pin case of patent, utility mo
  1
del or design patent registrations.
  7
CONVERTER_11
 73
     1
 44
0.99639855942377
  0
TEXT
  5
3AD
330
71
100
AcDbEntity
  8
1
 62
     2
100
AcDbText
 10
83.54331202709082
 20
323.1742177911443
 30
0.0
 40
1.8
  1
of
 41
0.9
  7
CONVERTER_11
100
AcDbText
  0
TEXT
  5
3AE
330
71
100
AcDbEntity
  8
1
 62
     2
100
AcDbText
 10
65.343312027091
 20
323.1742177911442
 30
0.0
 40
1.8
  1
page
 41
0.9
  7
CONVERTER_11
100
AcDbText
  0
TEXT
  5
3AF
330
71
100
AcDbEntity
  8
1
 62
     2
100
AcDbText
 10
73.989576997433
 20
323.1339863523339
 30
0.0
 40
1.8
  1
1
 41
0.9
  7
CONVERTER_11
100
AcDbText
  0
TEXT
  5
3B0
330
71
100
AcDbEntity
  8
1
 62
     2
100
AcDbText
 10
88.77862083690451
 20
323.1832350061358
 30
0.0
 40
1.8
  1
1
 41
0.9
  7
CONVERTER_11
100
AcDbText
  0
MTEXT
  5
3B2
330
71
100
AcDbEntity
  8
1
 62
     7
100
AcDbMText
 10
147.3157142904665
 20
325.1832350061361
 30
0.0
 40
3.0
 41
0.0
 71
     5
 72
     1
  1
STN 2,5
  7
CONVERTER_12
 73
     1
 44
1.20048019207683
  0
MTEXT
  5
3B3
330
71
100
AcDbEntity
  8
1
 62
     2
100
AcDbMText
 10
101.7433120270909
 20
329.4332350061359
 30
0.0
 40
1.8
 41
0.0
 71
     1
 72
     1
  1
description
  7
CONVERTER_11
 73
     1
 44
1.20048019207683
  0
MTEXT
  5
3B4
330
71
100
AcDbEntity
  8
1
 62
     3
100
AcDbMText
 10
90.5433120270909
 20
343.0582350061359
 30
0.0
 40
2.5
 41
0.0
 71
     5
 72
     1
  1
DIN A4
  7
CONVERTER_11
 73
     1
 44
1.20048019207683
  0
MTEXT
  5
3B5
330
71
100
AcDbEntity
  8
1
 62
     7
100
AcDbMText
 10
-95.61188344615806
 20
344.4332350061359
 30
0.0
 40
3.5
 41
0.0
 71
     5
 72
     1
  1
D
  7
CONVERTER_11
 73
     1
 44
1.20048019207683
  0
MTEXT
  5
3B6
330
71
100
AcDbEntity
  8
1
 62
     7
100
AcDbMText
 10
-95.61188344615806
 20
396.9332350061359
 30
0.0
 40
3.5
 41
0.0
 71
     5
 72
     1
  1
C
  7
CONVERTER_11
 73
     1
 44
1.20048019207683
  0
MTEXT
  5
3B7
330
71
100
AcDbEntity
  8
1
 62
     7
100
AcDbMText
 10
-95.61188344615806
 20
446.9332350061359
 30
0.0
 40
3.5
 41
0.0
 71
     5
 72
     1
  1
B
  7
CONVERTER_11
 73
     1
 44
1.20048019207683
  0
MTEXT
  5
3B8
330
71
100
AcDbEntity
  8
1
 62
     7
100
AcDbMText
 10
-95.61188344615806
 20
499.4332350061359
 30
0.0
 40
3.5
 41
0.0
 71
     5
 72
     1
  1
A
  7
CONVERTER_11
 73
     1
 44
1.20048019207683
  0
MTEXT
  5
3B9
330
71
100
AcDbEntity
  8
1
 62
     7
100
AcDbMText
 10
174.6381165538402
 20
319.4332350061358
 30
0.0
 40
3.5
 41
0.0
 71
     5
 72
     1
  1
6
  7
CONVERTER_11
 73
     1
 44
1.20048019207683
  0
MTEXT
  5
3BA
330
71
100
AcDbEntity
  8
1
 62
     7
100
AcDbMText
 10
125.388116553841
 20
319.4332350061358
 30
0.0
 40
3.5
 41
0.0
 71
     5
 72
     1
  1
5
  7
CONVERTER_11
 73
     1
 44
1.20048019207683
  0
MTEXT
  5
3BB
330
71
100
AcDbEntity
  8
1
 62
     7
100
AcDbMText
 10
75.38811655384092
 20
319.4332350061358
 30
0.0
 40
3.5
 41
0.0
 71
     5
 72
     1
  1
4
  7
CONVERTER_11
 73
     1
 44
1.20048019207683
  0
MTEXT
  5
3BC
330
71
100
AcDbEntity
  8
1
 62
     7
100
AcDbMText
 10
25.38811655384103
 20
319.4332350061358
 30
0.0
 40
3.5
 41
0.0
 71
     5
 72
     1
  1
3
  7
CONVERTER_11
 73
     1
 44
1.20048019207683
  0
MTEXT
  5
3BD
330
71
100
AcDbEntity
  8
1
 62
     7
100
AcDbMText
 10
-24.61188344615897
 20
319.4332350061358
 30
0.0
 40
3.5
 41
0.0
 71
     5
 72
     1
  1
2
  7
CONVERTER_11
 73
     1
 44
1.20048019207683
  0
MTEXT
  5
3BE
330
71
100
AcDbEntity
  8
1
 62
     7
100
AcDbMText
 10
-73.86188344615857
 20
319.4332350061358
 30
0.0
 40
3.5
 41
0.0
 71
     5
 72
     1
  1
1
  7
CONVERTER_11
 73
     1
 44
1.20048019207683
  0
MTEXT
  5
3BF
330
71
100
AcDbEntity
  8
1
 62
     7
100
AcDbMText
 10
196.38811655384
 20
344.4332350061359
 30
0.0
 40
3.5
 41
0.0
 71
     5
 72
     1
  1
D
  7
CONVERTER_11
 73
     1
 44
1.20048019207683
  0
MTEXT
  5
3C0
330
71
100
AcDbEntity
  8
1
 62
     7
100
AcDbMText
 10
196.38811655384
 20
446.9332350061378
 30
0.0
 40
3.5
 41
0.0
 71
     5
 72
     1
  1
B
  7
CONVERTER_11
 73
     1
 44
1.20048019207683
  0
MTEXT
  5
3C1
330
71
100
AcDbEntity
  8
1
 62
     7
100
AcDbMText
 10
196.38811655384
 20
499.4332350061359
 30
0.0
 40
3.5
 41
0.0
 71
     5
 72
     1
  1
A
  7
CONVERTER_11
 73
     1
 44
1.20048019207683
  0
MTEXT
  5
3C2
330
71
100
AcDbEntity
  8
1
 62
     7
100
AcDbMText
 10
196.38811655384
 20
396.9332350061378
 30
0.0
 40
3.5
 41
0.0
 71
     5
 72
     1
  1
C
  7
CONVERTER_11
 73
     1
 44
1.20048019207683
  0
MTEXT
  5
3C3
330
71
100
AcDbEntity
  8
1
 62
     2
100
AcDbMText
 10
29.90529730204349
 20
334.6832350061358
 30
0.0
 40
2.0
 41
0.0
 71
     5
 72
     1
  1
General Information\P- Simplified representation\P- Document excluded from change process\P- Linear dimensions [mm]
  7
CONVERTER_11
 73
     1
 44
1.20048019207683
  0
TEXT
  5
3C4
330
71
100
AcDbEntity
  8
1
 62
     7
100
AcDbText
 10
102.2433120270907
 20
331.7332350061358
 30
0.0
 40
2.5
  1
3031940
 41
0.81
  7
CONVERTER_12
100
AcDbText
  0
MTEXT
  5
3C5
330
71
100
AcDbEntity
  8
1
 62
     2
100
AcDbMText
 10
101.843312027091
 20
337.9332350061359
 30
0.0
 40
1.8
 41
0.0
 71
     1
 72
     1
  1
ident.-No.
  7
CONVERTER_11
 73
     1
 44
1.20048019207683
  0
MTEXT
  5
3C6
330
71
100
AcDbEntity
  8
1
 62
     2
100
AcDbMText
 10
186.0697082721637
 20
346.4332350061359
 30
0.0
 40
1.8
 41
0.0
 71
     1
 72
     1
  1
scale
  7
CONVERTER_11
 73
     1
 44
1.20048019207683
  0
MTEXT
  5
3C8
330
71
100
AcDbEntity
  8
1
 62
     3
100
AcDbMText
 10
189.4289124130033
 20
340.2332350061359
 30
0.0
 40
2.5
 41
0.0
 71
     8
 72
     1
  1
1:1
  7
CONVERTER_13
 73
     1
 44
1.32052821128451
  0
TEXT
  5
3C9
330
71
100
AcDbEntity
  8
1
 62
     7
100
AcDbText
 10
101.843312027091
 20
340.2332350061358
 30
0.0
 40
2.5
  1
00319089
 41
0.81
  7
CONVERTER_12
100
AcDbText
  0
MTEXT
  5
3CB
330
71
100
AcDbEntity
  8
1
 62
     2
100
AcDbMText
 10
101.843312027091
 20
346.4332350061359
 30
0.0
 40
1.8
 41
0.0
 71
     1
 72
     1
  1
document-No. / RI
  7
CONVERTER_14
 73
     1
 44
1.32052821128451
  0
TEXT
  5
3CC
330
71
100
AcDbEntity
  8
1
 62
     3
100
AcDbText
 10
129.643312027091
 20
331.7332350061358
 30
0.0
 40
2.5
  1
TECDOC 2D_Productdrawing
 41
0.81
  7
CONVERTER_12
100
AcDbText
  0
MTEXT
  5
3CD
330
71
100
AcDbEntity
  8
1
 62
     2
100
AcDbMText
 10
129.643312027091
 20
337.9332350061358
 30
0.0
 40
1.8
 41
0.0
 71
     1
 72
     1
  1
document-type
  7
CONVERTER_11
 73
     1
 44
1.20048019207683
  0
MTEXT
  5
3CE
330
71
100
AcDbEntity
  8
1
 62
     2
100
AcDbMText
 10
159.4697082721639
 20
346.4332350061358
 30
0.0
 40
1.8
 41
0.0
 71
     1
 72
     1
  1
date
  7
CONVERTER_11
 73
     1
 44
1.32052821128451
  0
TEXT
  5
3CF
330
71
100
AcDbEntity
  8
1
 62
     3
100
AcDbText
 10
159.4697082721639
 20
340.2332350061358
 30
0.0
 40
2.5
  1
05.04.2018
 41
0.81
  7
CONVERTER_12
100
AcDbText
  0
TEXT
  5
3D0
330
71
100
AcDbEntity
  8
1
 62
     7
100
AcDbText
 10
121.8732242461468
 20
340.2332350061358
 30
0.0
 40
2.5
  1
01
 41
0.81
  7
CONVERTER_12
100
AcDbText
  0
TEXT
  5
3D1
330
71
100
AcDbEntity
  8
1
 62
     7
100
AcDbText
 10
119.7168597491048
 20
340.2332350061358
 30
0.0
 40
2.5
  1
/
 41
0.9
  7
CONVERTER_11
100
AcDbText
  0
HATCH
  5
3D2
330
71
100
AcDbEntity
  8
1
  6
Continuous
 62
     2
100
AcDbHatch
 10
0.0
 20
0.0
 30
0.0
210
0.0
220
0.0
230
1.0
  2
_USER
 70
     0
 71
     1
 91
        1
 92
        1
 93
       12
 72
     1
 10
82.0108127400521
 20
332.5859254823265
 11
80.8180200378857
 21
332.5859254823265
 72
     1
 10
80.8180200378857
 20
332.5859254823265
 11
80.8180200378857
 21
333.7201975911703
 72
     1
 10
80.8180200378857
 20
333.7201975911703
 11
79.76836245997822
 21
333.7201975911703
 72
     1
 10
79.76836245997822
 20
333.7201975911703
 11
79.76836245997822
 21
332.5859254823265
 72
     1
 10
79.76836245997822
 20
332.5859254823265
 11
78.57556975781162
 21
332.5859254823265
 72
     1
 10
78.57556975781162
 20
332.5859254823265
 11
78.57556975781162
 21
335.6397350061377
 72
     1
 10
78.57556975781162
 20
335.6397350061377
 11
79.76836245997822
 21
335.6397350061377
 72
     1
 10
79.76836245997822
 20
335.6397350061377
 11
79.76836245997822
 21
334.5709016728031
 72
     1
 10
79.76836245997822
 20
334.5709016728031
 11
80.8180200378857
 21
334.5709016728031
 72
     1
 10
80.8180200378857
 20
334.5709016728031
 11
80.8180200378857
 21
335.6397350061377
 72
     1
 10
80.8180200378857
 20
335.6397350061377
 11
82.0108127400521
 21
335.6397350061377
 72
     1
 10
82.0108127400521
 20
335.6397350061377
 11
82.0108127400521
 21
332.5859254823265
 97
       12
330
33F
330
340
330
32A
330
329
330
328
330
33C
330
327
330
33D
330
33E
330
326
330
325
330
324
 75
     1
 76
     0
 52
45.0
 41
0.1
 77
     0
 78
     1
 53
45.0
 43
0.0
 44
0.0
 45
-0.0707106781186548
 46
0.0707106781186548
 79
     0
 98
        1
 10
0.0
 20
0.0
  0
HATCH
  5
3D3
330
71
100
AcDbEntity
  8
1
  6
Continuous
 62
     2
100
AcDbHatch
 10
0.0
 20
0.0
 30
0.0
210
0.0
220
0.0
230
1.0
  2
_USER
 70
     0
 71
     1
 91
        1
 92
        1
 93
       12
 72
     1
 10
82.0108127400521
 20
332.5859254823265
 11
80.8180200378857
 21
332.5859254823265
 72
     1
 10
80.8180200378857
 20
332.5859254823265
 11
80.8180200378857
 21
333.7201975911703
 72
     1
 10
80.8180200378857
 20
333.7201975911703
 11
79.76836245997822
 21
333.7201975911703
 72
     1
 10
79.76836245997822
 20
333.7201975911703
 11
79.76836245997822
 21
332.5859254823265
 72
     1
 10
79.76836245997822
 20
332.5859254823265
 11
78.57556975781162
 21
332.5859254823265
 72
     1
 10
78.57556975781162
 20
332.5859254823265
 11
78.57556975781162
 21
335.6397350061377
 72
     1
 10
78.57556975781162
 20
335.6397350061377
 11
79.76836245997822
 21
335.6397350061377
 72
     1
 10
79.76836245997822
 20
335.6397350061377
 11
79.76836245997822
 21
334.5709016728031
 72
     1
 10
79.76836245997822
 20
334.5709016728031
 11
80.8180200378857
 21
334.5709016728031
 72
     1
 10
80.8180200378857
 20
334.5709016728031
 11
80.8180200378857
 21
335.6397350061377
 72
     1
 10
80.8180200378857
 20
335.6397350061377
 11
82.0108127400521
 21
335.6397350061377
 72
     1
 10
82.0108127400521
 20
335.6397350061377
 11
82.0108127400521
 21
332.5859254823265
 97
       12
330
33F
330
340
330
32A
330
329
330
328
330
33C
330
327
330
33D
330
33E
330
326
330
325
330
324
 75
     1
 76
     0
 52
45.0
 41
0.1
 77
     0
 78
     1
 53
45.0
 43
0.0
 44
0.0
 45
-0.0707106781186548
 46
0.0707106781186548
 79
     0
 98
        1
 10
0.0
 20
0.0
  0
HATCH
  5
3D4
330
71
100
AcDbEntity
  8
1
  6
Continuous
 62
     2
100
AcDbHatch
 10
0.0
 20
0.0
 30
0.0
210
0.0
220
0.0
230
1.0
  2
_USER
 70
     0
 71
     1
 91
        1
 92
        1
 93
       10
 72
     1
 10
84.2531120892404
 20
330.9717690197582
 11
83.01260767898751
 21
332.2805445299633
 72
     1
 10
83.01260767898751
 20
332.2805445299633
 11
81.81981497681991
 21
332.2805445299633
 72
     1
 10
81.81981497681991
 20
332.2805445299633
 11
81.81981497681991
 21
329.2267350061522
 72
     1
 10
81.81981497681991
 20
329.2267350061522
 11
83.01260767898751
 21
329.2267350061522
 72
     1
 10
83.01260767898751
 20
329.2267350061522
 11
83.01260767898751
 21
330.5355105163568
 72
     1
 10
83.01260767898751
 20
330.5355105163568
 11
84.2531120892404
 21
329.2267350061522
 72
     1
 10
84.2531120892404
 20
329.2267350061522
 11
85.4459047914068
 21
329.2267350061522
 72
     1
 10
85.4459047914068
 20
329.2267350061522
 11
85.4459047914068
 21
332.2805445299633
 72
     1
 10
85.4459047914068
 20
332.2805445299633
 11
84.2531120892404
 21
332.2805445299633
 72
     1
 10
84.2531120892404
 20
332.2805445299633
 11
84.2531120892404
 21
330.9717690197582
 97
       10
330
34D
330
31D
330
31C
330
31F
330
348
330
349
330
31E
330
34A
330
34B
330
34C
 75
     1
 76
     0
 52
45.0
 41
0.1
 77
     0
 78
     1
 53
45.0
 43
0.0
 44
0.0
 45
-0.0707106781186548
 46
0.0707106781186548
 79
     0
 98
        1
 10
0.0
 20
0.0
  0
HATCH
  5
3D5
330
71
100
AcDbEntity
  8
1
  6
Continuous
 62
     2
100
AcDbHatch
 10
0.0
 20
0.0
 30
0.0
210
0.0
220
0.0
230
1.0
  2
_USER
 70
     0
 71
     1
 91
        1
 92
        1
 93
       10
 72
     1
 10
84.2531120892404
 20
330.9717690197582
 11
83.01260767898751
 21
332.2805445299633
 72
     1
 10
83.01260767898751
 20
332.2805445299633
 11
81.81981497681991
 21
332.2805445299633
 72
     1
 10
81.81981497681991
 20
332.2805445299633
 11
81.81981497681991
 21
329.2267350061522
 72
     1
 10
81.81981497681991
 20
329.2267350061522
 11
83.01260767898751
 21
329.2267350061522
 72
     1
 10
83.01260767898751
 20
329.2267350061522
 11
83.01260767898751
 21
330.5355105163568
 72
     1
 10
83.01260767898751
 20
330.5355105163568
 11
84.2531120892404
 21
329.2267350061522
 72
     1
 10
84.2531120892404
 20
329.2267350061522
 11
85.4459047914068
 21
329.2267350061522
 72
     1
 10
85.4459047914068
 20
329.2267350061522
 11
85.4459047914068
 21
332.2805445299633
 72
     1
 10
85.4459047914068
 20
332.2805445299633
 11
84.2531120892404
 21
332.2805445299633
 72
     1
 10
84.2531120892404
 20
332.2805445299633
 11
84.2531120892404
 21
330.9717690197582
 97
       10
330
34D
330
31D
330
31C
330
31F
330
348
330
349
330
31E
330
34A
330
34B
330
34C
 75
     1
 76
     0
 52
45.0
 41
0.1
 77
     0
 78
     1
 53
45.0
 43
0.0
 44
0.0
 45
-0.0707106781186548
 46
0.0707106781186548
 79
     0
 98
        1
 10
0.0
 20
0.0
  0
HATCH
  5
3D6
330
71
100
AcDbEntity
  8
1
  6
Continuous
 62
     2
100
AcDbHatch
 10
0.0
 20
0.0
 30
0.0
210
0.0
220
0.0
230
1.0
  2
_USER
 70
     0
 71
     1
 91
        1
 92
        1
 93
       10
 72
     1
 10
89.50155090966012
 20
334.3309594959325
 11
88.26104649940612
 21
335.6397350061377
 72
     1
 10
88.26104649940612
 20
335.6397350061377
 11
87.0682537972396
 21
335.6397350061377
 72
     1
 10
87.0682537972396
 20
335.6397350061377
 11
87.0682537972396
 21
332.5859254823265
 72
     1
 10
87.0682537972396
 20
332.5859254823265
 11
88.26104649940612
 21
332.5859254823265
 72
     1
 10
88.26104649940612
 20
332.5859254823265
 11
88.26104649940612
 21
333.8947009925312
 72
     1
 10
88.26104649940612
 20
333.8947009925312
 11
89.50155090966012
 21
332.5859254823265
 72
     1
 10
89.50155090966012
 20
332.5859254823265
 11
90.69434361182672
 21
332.5859254823265
 72
     1
 10
90.69434361182672
 20
332.5859254823265
 11
90.69434361182672
 21
335.6397350061377
 72
     1
 10
90.69434361182672
 20
335.6397350061377
 11
89.50155090966012
 21
335.6397350061377
 72
     1
 10
89.50155090966012
 20
335.6397350061377
 11
89.50155090966012
 21
334.3309594959325
 97
       10
330
352
330
31A
330
319
330
353
330
318
330
34E
330
34F
330
350
330
351
330
31B
 75
     1
 76
     0
 52
45.0
 41
0.1
 77
     0
 78
     1
 53
45.0
 43
0.0
 44
0.0
 45
-0.0707106781186548
 46
0.0707106781186548
 79
     0
 98
        1
 10
0.0
 20
0.0
  0
HATCH
  5
3D7
330
71
100
AcDbEntity
  8
1
  6
Continuous
 62
     2
100
AcDbHatch
 10
0.0
 20
0.0
 30
0.0
210
0.0
220
0.0
230
1.0
  2
_USER
 70
     0
 71
     1
 91
        1
 92
        1
 93
       10
 72
     1
 10
89.50155090966012
 20
334.3309594959325
 11
88.26104649940612
 21
335.6397350061377
 72
     1
 10
88.26104649940612
 20
335.6397350061377
 11
87.0682537972396
 21
335.6397350061377
 72
     1
 10
87.0682537972396
 20
335.6397350061377
 11
87.0682537972396
 21
332.5859254823265
 72
     1
 10
87.0682537972396
 20
332.5859254823265
 11
88.26104649940612
 21
332.5859254823265
 72
     1
 10
88.26104649940612
 20
332.5859254823265
 11
88.26104649940612
 21
333.8947009925312
 72
     1
 10
88.26104649940612
 20
333.8947009925312
 11
89.50155090966012
 21
332.5859254823265
 72
     1
 10
89.50155090966012
 20
332.5859254823265
 11
90.69434361182672
 21
332.5859254823265
 72
     1
 10
90.69434361182672
 20
332.5859254823265
 11
90.69434361182672
 21
335.6397350061377
 72
     1
 10
90.69434361182672
 20
335.6397350061377
 11
89.50155090966012
 21
335.6397350061377
 72
     1
 10
89.50155090966012
 20
335.6397350061377
 11
89.50155090966012
 21
334.3309594959325
 97
       10
330
352
330
31A
330
319
330
353
330
318
330
34E
330
34F
330
350
330
351
330
31B
 75
     1
 76
     0
 52
45.0
 41
0.1
 77
     0
 78
     1
 53
45.0
 43
0.0
 44
0.0
 45
-0.0707106781186548
 46
0.0707106781186548
 79
     0
 98
        1
 10
0.0
 20
0.0
  0
HATCH
  5
3D8
330
71
100
AcDbEntity
  8
1
  6
Continuous
 62
     2
100
AcDbHatch
 10
0.0
 20
0.0
 30
0.0
210
0.0
220
0.0
230
1.0
  2
_USER
 70
     0
 71
     1
 91
        1
 92
        1
 93
        8
 72
     1
 10
88.40403069278062
 20
332.2805445299633
 11
85.589039915667
 21
332.2805445299633
 72
     1
 10
85.589039915667
 20
332.2805445299633
 11
85.589039915667
 21
331.4952792238397
 72
     1
 10
85.589039915667
 20
331.4952792238397
 11
86.4001389531416
 21
331.4952792238397
 72
     1
 10
86.4001389531416
 20
331.4952792238397
 11
86.4001389531416
 21
329.2267350061522
 72
     1
 10
86.4001389531416
 20
329.2267350061522
 11
87.59293165530812
 21
329.2267350061522
 72
     1
 10
87.59293165530812
 20
329.2267350061522
 11
87.59293165530812
 21
331.4952792238397
 72
     1
 10
87.59293165530812
 20
331.4952792238397
 11
88.40403069278062
 21
331.4952792238397
 72
     1
 10
88.40403069278062
 20
331.4952792238397
 11
88.40403069278062
 21
332.2805445299633
 97
        8
330
314
330
354
330
313
330
355
330
356
330
317
330
316
330
315
 75
     1
 76
     0
 52
45.0
 41
0.1
 77
     0
 78
     1
 53
45.0
 43
0.0
 44
0.0
 45
-0.0707106781186548
 46
0.0707106781186548
 79
     0
 98
        1
 10
0.0
 20
0.0
  0
HATCH
  5
3D9
330
71
100
AcDbEntity
  8
1
  6
Continuous
 62
     2
100
AcDbHatch
 10
0.0
 20
0.0
 30
0.0
210
0.0
220
0.0
230
1.0
  2
_USER
 70
     0
 71
     1
 91
        1
 92
        1
 93
        8
 72
     1
 10
88.40403069278062
 20
332.2805445299633
 11
85.589039915667
 21
332.2805445299633
 72
     1
 10
85.589039915667
 20
332.2805445299633
 11
85.589039915667
 21
331.4952792238397
 72
     1
 10
85.589039915667
 20
331.4952792238397
 11
86.4001389531416
 21
331.4952792238397
 72
     1
 10
86.4001389531416
 20
331.4952792238397
 11
86.4001389531416
 21
329.2267350061522
 72
     1
 10
86.4001389531416
 20
329.2267350061522
 11
87.59293165530812
 21
329.2267350061522
 72
     1
 10
87.59293165530812
 20
329.2267350061522
 11
87.59293165530812
 21
331.4952792238397
 72
     1
 10
87.59293165530812
 20
331.4952792238397
 11
88.40403069278062
 21
331.4952792238397
 72
     1
 10
88.40403069278062
 20
331.4952792238397
 11
88.40403069278062
 21
332.2805445299633
 97
        8
330
314
330
354
330
313
330
355
330
356
330
317
330
316
330
315
 75
     1
 76
     0
 52
45.0
 41
0.1
 77
     0
 78
     1
 53
45.0
 43
0.0
 44
0.0
 45
-0.0707106781186548
 46
0.0707106781186548
 79
     0
 98
        1
 10
0.0
 20
0.0
  0
HATCH
  5
3DA
330
71
100
AcDbEntity
  8
1
  6
Continuous
 62
     2
100
AcDbHatch
 10
0.0
 20
0.0
 30
0.0
210
0.0
220
0.0
230
1.0
  2
_USER
 70
     0
 71
     1
 91
        2
 92
        1
 93
        8
 72
     1
 10
90.5424581487276
 20
329.2267350061522
 11
90.33097809525182
 21
329.76769555037
 72
     1
 10
90.33097809525182
 20
329.76769555037
 11
89.19853651857801
 21
329.76769555037
 72
     1
 10
89.19853651857801
 20
329.76769555037
 11
88.9870564651022
 21
329.2267350061522
 72
     1
 10
88.9870564651022
 20
329.2267350061522
 11
87.74655205484922
 21
329.2267350061522
 72
     1
 10
87.74655205484922
 20
329.2267350061522
 11
89.14450510178852
 21
332.2805445299633
 72
     1
 10
89.14450510178852
 20
332.2805445299633
 11
90.38500951204122
 21
332.2805445299633
 72
     1
 10
90.38500951204122
 20
332.2805445299633
 11
91.78296255898152
 21
329.2267350061522
 72
     1
 10
91.78296255898152
 20
329.2267350061522
 11
90.5424581487276
 21
329.2267350061522
 97
        8
330
358
330
359
330
310
330
35A
330
30F
330
312
330
357
330
311
 92
       16
 93
        3
 72
     1
 10
89.46459206972301
 20
330.4482588156767
 11
89.76475730691541
 21
331.2160737816633
 72
     1
 10
89.76475730691541
 20
331.2160737816633
 11
90.06492254410551
 21
330.4482588156767
 72
     1
 10
90.06492254410551
 20
330.4482588156767
 11
89.46459206972301
 21
330.4482588156767
 97
        3
330
30E
330
35C
330
35B
 75
     1
 76
     0
 52
45.0
 41
0.1
 77
     0
 78
     1
 53
45.0
 43
0.0
 44
0.0
 45
-0.0707106781186548
 46
0.0707106781186548
 79
     0
 98
        1
 10
0.0
 20
0.0
  0
HATCH
  5
3DB
330
71
100
AcDbEntity
  8
1
  6
Continuous
 62
     2
100
AcDbHatch
 10
0.0
 20
0.0
 30
0.0
210
0.0
220
0.0
230
1.0
  2
_USER
 70
     0
 71
     1
 91
        2
 92
        1
 93
        8
 72
     1
 10
90.5424581487276
 20
329.2267350061522
 11
90.33097809525182
 21
329.76769555037
 72
     1
 10
90.33097809525182
 20
329.76769555037
 11
89.19853651857801
 21
329.76769555037
 72
     1
 10
89.19853651857801
 20
329.76769555037
 11
88.9870564651022
 21
329.2267350061522
 72
     1
 10
88.9870564651022
 20
329.2267350061522
 11
87.74655205484922
 21
329.2267350061522
 72
     1
 10
87.74655205484922
 20
329.2267350061522
 11
89.14450510178852
 21
332.2805445299633
 72
     1
 10
89.14450510178852
 20
332.2805445299633
 11
90.38500951204122
 21
332.2805445299633
 72
     1
 10
90.38500951204122
 20
332.2805445299633
 11
91.78296255898152
 21
329.2267350061522
 72
     1
 10
91.78296255898152
 20
329.2267350061522
 11
90.5424581487276
 21
329.2267350061522
 97
        8
330
358
330
359
330
310
330
35A
330
30F
330
312
330
357
330
311
 92
       16
 93
        3
 72
     1
 10
89.46459206972301
 20
330.4482588156767
 11
89.76475730691541
 21
331.2160737816633
 72
     1
 10
89.76475730691541
 20
331.2160737816633
 11
90.06492254410551
 21
330.4482588156767
 72
     1
 10
90.06492254410551
 20
330.4482588156767
 11
89.46459206972301
 21
330.4482588156767
 97
        3
330
30E
330
35C
330
35B
 75
     1
 76
     0
 52
45.0
 41
0.1
 77
     0
 78
     1
 53
45.0
 43
0.0
 44
0.0
 45
-0.0707106781186548
 46
0.0707106781186548
 79
     0
 98
        1
 10
0.0
 20
0.0
  0
HATCH
  5
3DC
330
71
100
AcDbEntity
  8
1
  6
Continuous
 62
     2
100
AcDbHatch
 10
0.0
 20
0.0
 30
0.0
210
0.0
220
0.0
230
1.0
  2
_USER
 70
     0
 71
     1
 91
        1
 92
        1
 93
        4
 72
     1
 10
92.17340656251352
 20
332.5859254823265
 11
90.93290215226062
 21
332.5859254823265
 72
     1
 10
90.93290215226062
 20
332.5859254823265
 11
90.93290215226062
 21
335.6397350061377
 72
     1
 10
90.93290215226062
 20
335.6397350061377
 11
92.17340656251352
 21
335.6397350061377
 72
     1
 10
92.17340656251352
 20
335.6397350061377
 11
92.17340656251352
 21
332.5859254823265
 97
        4
330
30B
330
30D
330
35D
330
30C
 75
     1
 76
     0
 52
45.0
 41
0.1
 77
     0
 78
     1
 53
45.0
 43
0.0
 44
0.0
 45
-0.0707106781186548
 46
0.0707106781186548
 79
     0
 98
        1
 10
0.0
 20
0.0
  0
HATCH
  5
3DD
330
71
100
AcDbEntity
  8
1
  6
Continuous
 62
     2
100
AcDbHatch
 10
0.0
 20
0.0
 30
0.0
210
0.0
220
0.0
230
1.0
  2
_USER
 70
     0
 71
     1
 91
        1
 92
        1
 93
        4
 72
     1
 10
92.17340656251352
 20
332.5859254823265
 11
90.93290215226062
 21
332.5859254823265
 72
     1
 10
90.93290215226062
 20
332.5859254823265
 11
90.93290215226062
 21
335.6397350061377
 72
     1
 10
90.93290215226062
 20
335.6397350061377
 11
92.17340656251352
 21
335.6397350061377
 72
     1
 10
92.17340656251352
 20
335.6397350061377
 11
92.17340656251352
 21
332.5859254823265
 97
        4
330
30B
330
30D
330
35D
330
30C
 75
     1
 76
     0
 52
45.0
 41
0.1
 77
     0
 78
     1
 53
45.0
 43
0.0
 44
0.0
 45
-0.0707106781186548
 46
0.0707106781186548
 79
     0
 98
        1
 10
0.0
 20
0.0
  0
HATCH
  5
3DE
330
71
100
AcDbEntity
  8
1
  6
Continuous
 62
     2
100
AcDbHatch
 10
0.0
 20
0.0
 30
0.0
210
0.0
220
0.0
230
1.0
  2
_USER
 70
     0
 71
     1
 91
        1
 92
        1
 93
       12
 72
     1
 10
96.39589272818432
 20
335.6397350061377
 11
95.09336309741781
 21
334.1667844761015
 72
     1
 10
95.09336309741781
 20
334.1667844761015
 11
96.49131614435811
 21
332.5859254823265
 72
     1
 10
96.49131614435811
 20
332.5859254823265
 11
95.08859192660981
 21
332.5859254823265
 72
     1
 10
95.08859192660981
 20
332.5859254823265
 11
94.39200098854431
 21
333.3736572676202
 72
     1
 10
94.39200098854431
 20
333.3736572676202
 11
93.69541005047861
 21
332.5859254823265
 72
     1
 10
93.69541005047861
 20
332.5859254823265
 11
92.2926858327304
 21
332.5859254823265
 72
     1
 10
92.2926858327304
 20
332.5859254823265
 11
93.6906388796707
 21
334.1667844761015
 72
     1
 10
93.6906388796707
 20
334.1667844761015
 11
92.38810924890322
 21
335.6397350061377
 72
     1
 10
92.38810924890322
 20
335.6397350061377
 11
93.79083346665251
 21
335.6397350061377
 72
     1
 10
93.79083346665251
 20
335.6397350061377
 11
94.39200098854431
 21
334.9599116845822
 72
     1
 10
94.39200098854431
 20
334.9599116845822
 11
94.9931685104371
 21
335.6397350061377
 72
     1
 10
94.9931685104371
 20
335.6397350061377
 11
96.39589272818432
 21
335.6397350061377
 97
       12
330
306
330
305
330
304
330
361
330
362
330
35E
330
35F
330
30A
330
309
330
308
330
307
330
360
 75
     1
 76
     0
 52
45.0
 41
0.1
 77
     0
 78
     1
 53
45.0
 43
0.0
 44
0.0
 45
-0.0707106781186548
 46
0.0707106781186548
 79
     0
 98
        1
 10
0.0
 20
0.0
  0
HATCH
  5
3DF
330
71
100
AcDbEntity
  8
1
  6
Continuous
 62
     2
100
AcDbHatch
 10
0.0
 20
0.0
 30
0.0
210
0.0
220
0.0
230
1.0
  2
_USER
 70
     0
 71
     1
 91
        1
 92
        1
 93
       12
 72
     1
 10
96.39589272818432
 20
335.6397350061377
 11
95.09336309741781
 21
334.1667844761015
 72
     1
 10
95.09336309741781
 20
334.1667844761015
 11
96.49131614435811
 21
332.5859254823265
 72
     1
 10
96.49131614435811
 20
332.5859254823265
 11
95.08859192660981
 21
332.5859254823265
 72
     1
 10
95.08859192660981
 20
332.5859254823265
 11
94.39200098854431
 21
333.3736572676202
 72
     1
 10
94.39200098854431
 20
333.3736572676202
 11
93.69541005047861
 21
332.5859254823265
 72
     1
 10
93.69541005047861
 20
332.5859254823265
 11
92.2926858327304
 21
332.5859254823265
 72
     1
 10
92.2926858327304
 20
332.5859254823265
 11
93.6906388796707
 21
334.1667844761015
 72
     1
 10
93.6906388796707
 20
334.1667844761015
 11
92.38810924890322
 21
335.6397350061377
 72
     1
 10
92.38810924890322
 20
335.6397350061377
 11
93.79083346665251
 21
335.6397350061377
 72
     1
 10
93.79083346665251
 20
335.6397350061377
 11
94.39200098854431
 21
334.9599116845822
 72
     1
 10
94.39200098854431
 20
334.9599116845822
 11
94.9931685104371
 21
335.6397350061377
 72
     1
 10
94.9931685104371
 20
335.6397350061377
 11
96.39589272818432
 21
335.6397350061377
 97
       12
330
306
330
305
330
304
330
361
330
362
330
35E
330
35F
330
30A
330
309
330
308
330
307
330
360
 75
     1
 76
     0
 52
45.0
 41
0.1
 77
     0
 78
     1
 53
45.0
 43
0.0
 44
0.0
 45
-0.0707106781186548
 46
0.0707106781186548
 79
     0
 98
        1
 10
0.0
 20
0.0
  0
HATCH
  5
3E0
330
71
100
AcDbEntity
  8
1
  6
Continuous
 62
     2
100
AcDbHatch
 10
0.0
 20
0.0
 30
0.0
210
0.0
220
0.0
230
1.0
  2
_USER
 70
     0
 71
     1
 91
        2
 92
        1
 93
        6
 72
     1
 10
77.3781573140383
 20
333.5290037234703
 11
76.61938972625802
 21
333.5290037234703
 72
     1
 10
76.61938972625802
 20
333.5290037234703
 11
76.61938972625802
 21
332.5859254823265
 72
     1
 10
76.61938972625802
 20
332.5859254823265
 11
75.3788853160039
 21
332.5859254823265
 72
     1
 10
75.3788853160039
 20
332.5859254823265
 11
75.3788853160039
 21
335.6397350061377
 72
     1
 10
75.3788853160039
 20
335.6397350061377
 11
77.3781573140383
 21
335.6397350061377
 72
     2
 10
77.3781573140383
 20
334.584369364804
 40
1.055365641333708
 50
270.0
 51
450.0
 73
     0
 97
        6
330
32E
330
32D
330
33A
330
339
330
32F
330
37F
 92
       16
 93
        4
 72
     2
 10
76.93668478779992
 20
334.6237653360265
 40
0.3528638246710898
 50
270.0
 51
450.0
 73
     1
 72
     1
 10
76.93668478779992
 20
334.9766291606976
 11
76.61938972625802
 21
334.9766291606976
 72
     1
 10
76.61938972625802
 20
334.9766291606976
 11
76.61938972625802
 21
334.2709015113554
 72
     1
 10
76.61938972625802
 20
334.2709015113554
 11
76.93668478779992
 21
334.2709015113554
 97
        4
330
393
330
32B
330
33B
330
32C
 75
     1
 76
     0
 52
45.0
 41
0.1
 77
     0
 78
     1
 53
45.0
 43
0.0
 44
0.0
 45
-0.0707106781186548
 46
0.0707106781186548
 79
     0
 98
        1
 10
0.0
 20
0.0
  0
HATCH
  5
3E1
330
71
100
AcDbEntity
  8
1
  6
Continuous
 62
     2
100
AcDbHatch
 10
0.0
 20
0.0
 30
0.0
210
0.0
220
0.0
230
1.0
  2
_USER
 70
     0
 71
     1
 91
        2
 92
        1
 93
        6
 72
     1
 10
77.3781573140383
 20
333.5290037234703
 11
76.61938972625802
 21
333.5290037234703
 72
     1
 10
76.61938972625802
 20
333.5290037234703
 11
76.61938972625802
 21
332.5859254823265
 72
     1
 10
76.61938972625802
 20
332.5859254823265
 11
75.3788853160039
 21
332.5859254823265
 72
     1
 10
75.3788853160039
 20
332.5859254823265
 11
75.3788853160039
 21
335.6397350061377
 72
     1
 10
75.3788853160039
 20
335.6397350061377
 11
77.3781573140383
 21
335.6397350061377
 72
     2
 10
77.3781573140383
 20
334.584369364804
 40
1.055365641333708
 50
270.0
 51
450.0
 73
     0
 97
        6
330
32E
330
32D
330
33A
330
339
330
32F
330
37F
 92
       16
 93
        4
 72
     2
 10
76.93668478779992
 20
334.6237653360265
 40
0.3528638246710898
 50
270.0
 51
450.0
 73
     1
 72
     1
 10
76.93668478779992
 20
334.9766291606976
 11
76.61938972625802
 21
334.9766291606976
 72
     1
 10
76.61938972625802
 20
334.9766291606976
 11
76.61938972625802
 21
334.2709015113554
 72
     1
 10
76.61938972625802
 20
334.2709015113554
 11
76.93668478779992
 21
334.2709015113554
 97
        4
330
393
330
32B
330
33B
330
32C
 75
     1
 76
     0
 52
45.0
 41
0.1
 77
     0
 78
     1
 53
45.0
 43
0.0
 44
0.0
 45
-0.0707106781186548
 46
0.0707106781186548
 79
     0
 98
        1
 10
0.0
 20
0.0
  0
HATCH
  5
3E2
330
71
100
AcDbEntity
  8
1
  6
Continuous
 62
     2
100
AcDbHatch
 10
0.0
 20
0.0
 30
0.0
210
0.0
220
0.0
230
1.0
  2
_USER
 70
     0
 71
     1
 91
        2
 92
        1
 93
        4
 72
     2
 10
79.93470006239741
 20
330.2150647577547
 40
2.065479772208593
 50
62.45185182430674
 51
117.548148175666
 73
     1
 72
     2
 10
79.65376017056411
 20
330.7536397680575
 40
1.458034083651515
 50
117.5481481756619
 51
242.451851824337
 73
     1
 72
     2
 10
79.93470006239741
 20
331.2922147783607
 40
2.065479772208382
 50
242.4518518243383
 51
297.5481481756889
 73
     1
 72
     2
 10
80.21563995423071
 20
330.7536397680575
 40
1.458034083651977
 50
297.5481481757016
 51
422.4518518242994
 73
     1
 97
        4
330
38B
330
38A
330
38C
330
389
 92
       16
 93
        4
 72
     2
 10
79.734960026051
 20
330.7536397680575
 40
0.7717997786796947
 50
321.8795802028417
 51
398.120419797155
 73
     1
 72
     2
 10
79.93470006239741
 20
330.910370946178
 40
0.5179085730133349
 50
38.12041979715197
 51
141.8795802028538
 73
     1
 72
     2
 10
80.13444009874351
 20
330.7536397680575
 40
0.7717997786794808
 50
141.8795802028346
 51
218.1204197971687
 73
     1
 72
     2
 10
79.93470006239741
 20
330.5969085899375
 40
0.5179085730137529
 50
218.1204197971956
 51
321.8795802027985
 73
     1
 97
        4
330
3A7
330
3A4
330
3A5
330
3A6
 75
     1
 76
     0
 52
45.0
 41
0.1
 77
     0
 78
     1
 53
45.0
 43
0.0
 44
0.0
 45
-0.0707106781186548
 46
0.0707106781186548
 79
     0
 98
        1
 10
0.0
 20
0.0
  0
HATCH
  5
3E3
330
71
100
AcDbEntity
  8
1
  6
Continuous
 62
     2
100
AcDbHatch
 10
0.0
 20
0.0
 30
0.0
210
0.0
220
0.0
230
1.0
  2
_USER
 70
     0
 71
     1
 91
        2
 92
        1
 93
        4
 72
     2
 10
79.93470006239741
 20
330.2150647577547
 40
2.065479772208593
 50
62.45185182430674
 51
117.548148175666
 73
     1
 72
     2
 10
79.65376017056411
 20
330.7536397680575
 40
1.458034083651515
 50
117.5481481756619
 51
242.451851824337
 73
     1
 72
     2
 10
79.93470006239741
 20
331.2922147783607
 40
2.065479772208382
 50
242.4518518243383
 51
297.5481481756889
 73
     1
 72
     2
 10
80.21563995423071
 20
330.7536397680575
 40
1.458034083651977
 50
297.5481481757016
 51
422.4518518242994
 73
     1
 97
        4
330
38B
330
38A
330
38C
330
389
 92
       16
 93
        4
 72
     2
 10
79.734960026051
 20
330.7536397680575
 40
0.7717997786796947
 50
321.8795802028417
 51
398.120419797155
 73
     1
 72
     2
 10
79.93470006239741
 20
330.910370946178
 40
0.5179085730133349
 50
38.12041979715197
 51
141.8795802028538
 73
     1
 72
     2
 10
80.13444009874351
 20
330.7536397680575
 40
0.7717997786794808
 50
141.8795802028346
 51
218.1204197971687
 73
     1
 72
     2
 10
79.93470006239741
 20
330.5969085899375
 40
0.5179085730137529
 50
218.1204197971956
 51
321.8795802027985
 73
     1
 97
        4
330
3A7
330
3A4
330
3A5
330
3A6
 75
     1
 76
     0
 52
45.0
 41
0.1
 77
     0
 78
     1
 53
45.0
 43
0.0
 44
0.0
 45
-0.0707106781186548
 46
0.0707106781186548
 79
     0
 98
        1
 10
0.0
 20
0.0
  0
HATCH
  5
3E4
330
71
100
AcDbEntity
  8
1
  6
Continuous
 62
     2
100
AcDbHatch
 10
0.0
 20
0.0
 30
0.0
210
0.0
220
0.0
230
1.0
  2
_USER
 70
     0
 71
     1
 91
        2
 92
        1
 93
       12
 72
     1
 10
86.8296952568067
 20
334.9417214006947
 11
85.49376743037902
 21
334.9417214006947
 72
     1
 10
85.49376743037902
 20
334.9417214006947
 11
85.49376743037902
 21
334.461837046953
 72
     1
 10
85.49376743037902
 20
334.461837046953
 11
86.8296952568067
 21
334.461837046953
 72
     1
 10
86.8296952568067
 20
334.461837046953
 11
86.8296952568067
 21
333.7638234415107
 72
     1
 10
86.8296952568067
 20
333.7638234415107
 11
85.49376743037902
 21
333.7638234415107
 72
     1
 10
85.49376743037902
 20
333.7638234415107
 11
85.49376743037902
 21
333.283939087769
 72
     1
 10
85.49376743037902
 20
333.283939087769
 11
86.8296952568067
 21
333.283939087769
 72
     1
 10
86.8296952568067
 20
333.283939087769
 11
86.8296952568067
 21
332.5859254823265
 72
     1
 10
86.8296952568067
 20
332.5859254823265
 11
83.6793755330257
 21
332.5859254823265
 72
     2
 10
83.6793755330257
 20
334.1128302442318
 40
1.526904761905882
 50
90.0
 51
270.0
 73
     0
 72
     1
 10
83.6793755330257
 20
335.6397350061377
 11
86.8296952568067
 21
335.6397350061377
 72
     1
 10
86.8296952568067
 20
335.6397350061377
 11
86.8296952568067
 21
334.9417214006947
 97
       12
330
342
330
394
330
343
330
344
330
345
330
346
330
323
330
322
330
321
330
320
330
347
330
341
 92
       16
 93
        4
 72
     2
 10
83.8956475431909
 20
334.2695614223522
 40
0.5179085730135967
 50
38.12041979715324
 51
141.879580202839
 73
     1
 72
     2
 10
84.0953875795372
 20
334.1128302442318
 40
0.7717997786796724
 50
141.8795802028404
 51
218.1204197971629
 73
     1
 72
     2
 10
83.8956475431909
 20
333.9560990661114
 40
0.5179085730135072
 50
218.120419797161
 51
321.8795802028467
 73
     1
 72
     2
 10
83.69590750684472
 20
334.1128302442318
 40
0.7717997786797075
 50
321.8795802028371
 51
398.1204197971595
 73
     1
 97
        4
330
38E
330
38D
330
388
330
387
 75
     1
 76
     0
 52
45.0
 41
0.1
 77
     0
 78
     1
 53
45.0
 43
0.0
 44
0.0
 45
-0.0707106781186548
 46
0.0707106781186548
 79
     0
 98
        1
 10
0.0
 20
0.0
  0
HATCH
  5
3E5
330
71
100
AcDbEntity
  8
1
  6
Continuous
 62
     2
100
AcDbHatch
 10
0.0
 20
0.0
 30
0.0
210
0.0
220
0.0
230
1.0
  2
_USER
 70
     0
 71
     1
 91
        2
 92
        1
 93
       12
 72
     1
 10
86.8296952568067
 20
334.9417214006947
 11
85.49376743037902
 21
334.9417214006947
 72
     1
 10
85.49376743037902
 20
334.9417214006947
 11
85.49376743037902
 21
334.461837046953
 72
     1
 10
85.49376743037902
 20
334.461837046953
 11
86.8296952568067
 21
334.461837046953
 72
     1
 10
86.8296952568067
 20
334.461837046953
 11
86.8296952568067
 21
333.7638234415107
 72
     1
 10
86.8296952568067
 20
333.7638234415107
 11
85.49376743037902
 21
333.7638234415107
 72
     1
 10
85.49376743037902
 20
333.7638234415107
 11
85.49376743037902
 21
333.283939087769
 72
     1
 10
85.49376743037902
 20
333.283939087769
 11
86.8296952568067
 21
333.283939087769
 72
     1
 10
86.8296952568067
 20
333.283939087769
 11
86.8296952568067
 21
332.5859254823265
 72
     1
 10
86.8296952568067
 20
332.5859254823265
 11
83.6793755330257
 21
332.5859254823265
 72
     2
 10
83.6793755330257
 20
334.1128302442318
 40
1.526904761905882
 50
90.0
 51
270.0
 73
     0
 72
     1
 10
83.6793755330257
 20
335.6397350061377
 11
86.8296952568067
 21
335.6397350061377
 72
     1
 10
86.8296952568067
 20
335.6397350061377
 11
86.8296952568067
 21
334.9417214006947
 97
       12
330
342
330
394
330
343
330
344
330
345
330
346
330
323
330
322
330
321
330
320
330
347
330
341
 92
       16
 93
        4
 72
     2
 10
83.8956475431909
 20
334.2695614223522
 40
0.5179085730135967
 50
38.12041979715324
 51
141.879580202839
 73
     1
 72
     2
 10
84.0953875795372
 20
334.1128302442318
 40
0.7717997786796724
 50
141.8795802028404
 51
218.1204197971629
 73
     1
 72
     2
 10
83.8956475431909
 20
333.9560990661114
 40
0.5179085730135072
 50
218.120419797161
 51
321.8795802028467
 73
     1
 72
     2
 10
83.69590750684472
 20
334.1128302442318
 40
0.7717997786797075
 50
321.8795802028371
 51
398.1204197971595
 73
     1
 97
        4
330
38E
330
38D
330
388
330
387
 75
     1
 76
     0
 52
45.0
 41
0.1
 77
     0
 78
     1
 53
45.0
 43
0.0
 44
0.0
 45
-0.0707106781186548
 46
0.0707106781186548
 79
     0
 98
        1
 10
0.0
 20
0.0
  0
HATCH
  5
3E6
330
71
100
AcDbEntity
  8
1
  6
Continuous
 62
     2
100
AcDbHatch
 10
0.0
 20
0.0
 30
0.0
210
0.0
220
0.0
230
1.0
  2
_USER
 70
     0
 71
     1
 91
        4
 92
        1
 93
        8
 72
     1
 10
74.9017682351371
 20
335.2154903907357
 11
74.9017682351371
 21
329.6509796215355
 72
     2
 10
74.47752361975321
 20
329.6509796215355
 40
0.4242446153833157
 50
0.0
 51
90.0
 73
     0
 72
     1
 10
74.47752361975321
 20
329.2267350061522
 11
69.00421152903641
 21
329.2267350061522
 72
     2
 10
69.00421152903641
 20
329.6509796215355
 40
0.4242446153828041
 50
90.0
 51
180.0
 73
     0
 72
     1
 10
68.5799669136536
 20
329.6509796215355
 11
68.5799669136536
 21
335.2154903907357
 72
     2
 10
69.00421152903641
 20
335.2154903907357
 40
0.4242446153838273
 50
180.0
 51
270.0
 73
     0
 72
     1
 10
69.00421152903641
 20
335.6397350061195
 11
74.47752361975321
 21
335.6397350061195
 72
     2
 10
74.47752361975321
 20
335.2154903907357
 40
0.4242446153838841
 50
270.0
 51
360.0
 73
     0
 97
        8
330
336
330
384
330
337
330
38F
330
334
330
386
330
335
330
385
 92
       16
 93
        1
 72
     2
 10
71.62379717955392
 20
332.8966081623802
 40
0.4709789327785074
 50
0.0
 51
360.0
 73
     1
 97
        1
330
3AA
 92
       16
 93
        8
 72
     2
 10
72.1736548923146
 20
331.7874665624117
 40
0.3157169230766355
 50
115.374008678343
 51
180.0
 73
     1
 72
     1
 10
71.85793796923781
 20
331.7874665624117
 11
71.85793796923781
 21
331.2056151557167
 72
     2
 10
72.1736548923146
 20
331.2056151557167
 40
0.315716923076792
 50
180.0
 51
269.8110329574542
 73
     1
 72
     2
 10
72.17927102762462
 20
332.9084501032857
 40
2.01856113193338
 50
269.8110329575858
 51
450.1889670424142
 73
     1
 72
     2
 10
72.1736548923146
 20
334.6112850508548
 40
0.3157169230760711
 50
90.18896704254594
 51
180.0
 73
     1
 72
     1
 10
71.85793796923781
 20
334.6112850508548
 11
71.85793796923781
 21
334.005749762348
 72
     2
 10
72.1736548923146
 20
334.005749762348
 40
0.315716923076792
 50
180.0
 51
244.6259913216437
 73
     1
 72
     2
 10
71.64761219422672
 20
332.8966081623802
 40
0.9118481501444333
 50
295.374008678191
 51
424.6259913218228
 73
     0
 97
        8
330
39C
330
2FD
330
399
330
39A
330
378
330
2FC
330
39B
330
377
 92
       16
 93
       12
 72
     2
 10
69.5981062057829
 20
330.2550074847858
 40
0.3157169230756836
 50
180.0
 51
270.0
 73
     1
 72
     1
 10
69.5981062057829
 20
329.9392905617091
 11
71.07393946679252
 21
329.9392905617091
 72
     2
 10
71.07393946679252
 20
330.2550074847858
 40
0.3157169230767067
 50
270.0
 51
360.0
 73
     1
 72
     1
 10
71.38965638986912
 20
330.2550074847858
 11
71.38965638986912
 21
331.7857784163174
 72
     2
 10
71.07393946679252
 20
331.7857784163174
 40
0.315716923076593
 50
0.0
 51
64.80558935146468
 73
     1
 72
     2
 10
71.59652391436751
 20
332.8966081623802
 40
0.9118975235576403
 50
115.1944106485138
 51
244.8055893514725
 73
     0
 72
     2
 10
71.07393946679252
 20
334.0074379084424
 40
0.3157169230761203
 50
295.1944106485397
 51
360.0
 73
     1
 72
     1
 10
71.38965638986912
 20
334.0074379084424
 11
71.38965638986912
 21
334.6114625275029
 72
     2
 10
71.07393946679252
 20
334.6114625275029
 40
0.315716923076593
 50
0.0
 51
90.0
 73
     1
 72
     1
 10
71.07393946679252
 20
334.9271794505791
 11
69.5981062057829
 21
334.9271794505791
 72
     2
 10
69.5981062057829
 20
334.6114625275029
 40
0.3157169230761951
 50
90.0
 51
180.0
 73
     1
 72
     1
 10
69.28238928270721
 20
334.6114625275029
 11
69.28238928270721
 21
330.2550074847858
 97
       12
330
380
330
338
330
383
330
333
330
390
330
391
330
382
330
332
330
381
330
331
330
392
330
330
 75
     1
 76
     0
 52
45.0
 41
0.1
 77
     0
 78
     1
 53
45.0
 43
0.0
 44
0.0
 45
-0.0707106781186548
 46
0.0707106781186548
 79
     0
 98
        1
 10
0.0
 20
0.0
  0
HATCH
  5
3E7
330
71
100
AcDbEntity
  8
1
  6
Continuous
 62
     2
100
AcDbHatch
 10
0.0
 20
0.0
 30
0.0
210
0.0
220
0.0
230
1.0
  2
_USER
 70
     0
 71
     1
 91
        4
 92
        1
 93
        8
 72
     1
 10
74.9017682351371
 20
335.2154903907357
 11
74.9017682351371
 21
329.6509796215355
 72
     2
 10
74.47752361975321
 20
329.6509796215355
 40
0.4242446153833157
 50
0.0
 51
90.0
 73
     0
 72
     1
 10
74.47752361975321
 20
329.2267350061522
 11
69.00421152903641
 21
329.2267350061522
 72
     2
 10
69.00421152903641
 20
329.6509796215355
 40
0.4242446153828041
 50
90.0
 51
180.0
 73
     0
 72
     1
 10
68.5799669136536
 20
329.6509796215355
 11
68.5799669136536
 21
335.2154903907357
 72
     2
 10
69.00421152903641
 20
335.2154903907357
 40
0.4242446153838273
 50
180.0
 51
270.0
 73
     0
 72
     1
 10
69.00421152903641
 20
335.6397350061195
 11
74.47752361975321
 21
335.6397350061195
 72
     2
 10
74.47752361975321
 20
335.2154903907357
 40
0.4242446153838841
 50
270.0
 51
360.0
 73
     0
 97
        8
330
336
330
384
330
337
330
38F
330
334
330
386
330
335
330
385
 92
       16
 93
        1
 72
     2
 10
71.62379717955392
 20
332.8966081623802
 40
0.4709789327785074
 50
0.0
 51
360.0
 73
     1
 97
        1
330
3AA
 92
       16
 93
        8
 72
     2
 10
72.1736548923146
 20
331.7874665624117
 40
0.3157169230766355
 50
115.374008678343
 51
180.0
 73
     1
 72
     1
 10
71.85793796923781
 20
331.7874665624117
 11
71.85793796923781
 21
331.2056151557167
 72
     2
 10
72.1736548923146
 20
331.2056151557167
 40
0.315716923076792
 50
180.0
 51
269.8110329574542
 73
     1
 72
     2
 10
72.17927102762462
 20
332.9084501032857
 40
2.01856113193338
 50
269.8110329575858
 51
450.1889670424142
 73
     1
 72
     2
 10
72.1736548923146
 20
334.6112850508548
 40
0.3157169230760711
 50
90.18896704254594
 51
180.0
 73
     1
 72
     1
 10
71.85793796923781
 20
334.6112850508548
 11
71.85793796923781
 21
334.005749762348
 72
     2
 10
72.1736548923146
 20
334.005749762348
 40
0.315716923076792
 50
180.0
 51
244.6259913216437
 73
     1
 72
     2
 10
71.64761219422672
 20
332.8966081623802
 40
0.9118481501444333
 50
295.374008678191
 51
424.6259913218228
 73
     0
 97
        8
330
39C
330
2FD
330
399
330
39A
330
378
330
2FC
330
39B
330
377
 92
       16
 93
       12
 72
     2
 10
69.5981062057829
 20
330.2550074847858
 40
0.3157169230756836
 50
180.0
 51
270.0
 73
     1
 72
     1
 10
69.5981062057829
 20
329.9392905617091
 11
71.07393946679252
 21
329.9392905617091
 72
     2
 10
71.07393946679252
 20
330.2550074847858
 40
0.3157169230767067
 50
270.0
 51
360.0
 73
     1
 72
     1
 10
71.38965638986912
 20
330.2550074847858
 11
71.38965638986912
 21
331.7857784163174
 72
     2
 10
71.07393946679252
 20
331.7857784163174
 40
0.315716923076593
 50
0.0
 51
64.80558935146468
 73
     1
 72
     2
 10
71.59652391436751
 20
332.8966081623802
 40
0.9118975235576403
 50
115.1944106485138
 51
244.8055893514725
 73
     0
 72
     2
 10
71.07393946679252
 20
334.0074379084424
 40
0.3157169230761203
 50
295.1944106485397
 51
360.0
 73
     1
 72
     1
 10
71.38965638986912
 20
334.0074379084424
 11
71.38965638986912
 21
334.6114625275029
 72
     2
 10
71.07393946679252
 20
334.6114625275029
 40
0.315716923076593
 50
0.0
 51
90.0
 73
     1
 72
     1
 10
71.07393946679252
 20
334.9271794505791
 11
69.5981062057829
 21
334.9271794505791
 72
     2
 10
69.5981062057829
 20
334.6114625275029
 40
0.3157169230761951
 50
90.0
 51
180.0
 73
     1
 72
     1
 10
69.28238928270721
 20
334.6114625275029
 11
69.28238928270721
 21
330.2550074847858
 97
       12
330
380
330
338
330
383
330
333
330
390
330
391
330
382
330
332
330
381
330
331
330
392
330
330
 75
     1
 76
     0
 52
45.0
 41
0.1
 77
     0
 78
     1
 53
45.0
 43
0.0
 44
0.0
 45
-0.0707106781186548
 46
0.0707106781186548
 79
     0
 98
        1
 10
0.0
 20
0.0
  0
HATCH
  5
3E8
330
71
100
AcDbEntity
  8
1
  6
Continuous
 62
     2
100
AcDbHatch
 10
0.0
 20
0.0
 30
0.0
210
0.0
220
0.0
230
1.0
  2
_USER
 70
     0
 71
     1
 91
        1
 92
        1
 93
       18
 72
     1
 10
96.49131614435811
 20
331.4952792238397
 11
95.68021710688473
 21
331.4952792238397
 72
     1
 10
95.68021710688473
 20
331.4952792238397
 11
95.68021710688473
 21
329.2267350061522
 72
     1
 10
95.68021710688473
 20
329.2267350061522
 11
94.48742440471702
 21
329.2267350061522
 72
     1
 10
94.48742440471702
 20
329.2267350061522
 11
94.48742440471702
 21
331.4952792238397
 72
     1
 10
94.48742440471702
 20
331.4952792238397
 11
93.38378510514892
 21
331.4952792238397
 72
     2
 10
93.38378510514892
 20
330.5407562170136
 40
0.9545230068260935
 50
90.0
 51
109.337143219432
 73
     1
 72
     2
 10
93.23711510704521
 20
330.9587111973965
 40
0.5115800601944143
 50
109.3371432194853
 51
151.4785267424197
 73
     1
 72
     2
 10
93.6144723651266
 20
330.7536397680575
 40
0.941059735334906
 50
151.4785267423609
 51
208.5214732576695
 73
     1
 72
     2
 10
93.23711510704521
 20
330.548568338719
 40
0.5115800601960215
 50
208.5214732576866
 51
246.6277221118449
 73
     1
 72
     2
 10
93.39355513974832
 20
330.910560357429
 40
0.9059297849852801
 50
246.6277221118183
 51
288.4480761180817
 73
     1
 72
     2
 10
92.97538740608641
 20
332.1641061334656
 40
2.227384008972773
 50
288.4480761181333
 51
301.9309089499394
 73
     1
 72
     1
 10
94.15344244811033
 20
330.2737554143158
 11
94.15344244811033
 21
329.4012384075124
 72
     2
 10
92.8175145309936
 20
334.0663207133139
 40
4.852596863498881
 50
74.0200087416618
 51
84.8418552303637
 73
     0
 72
     2
 10
93.10637062572943
 20
330.8664301300923
 40
1.639695123940448
 50
84.8418552303238
 51
164.9381082228988
 73
     0
 72
     2
 10
92.68724278226782
 20
330.7536397680575
 40
1.205656168393002
 50
164.9381082229028
 51
195.0618917770972
 73
     0
 72
     2
 10
93.10637062572943
 20
330.6408494060225
 40
1.639695123940328
 50
195.0618917771089
 51
270.0
 73
     0
 72
     1
 10
93.10637062572943
 20
332.2805445299628
 11
96.49131614435811
 21
332.2805445299633
 72
     1
 10
96.49131614435811
 20
332.2805445299633
 11
96.49131614435811
 21
331.4952792238397
 97
       18
330
2FF
330
395
330
396
330
37E
330
37D
330
363
330
37C
330
37B
330
397
330
37A
330
398
330
379
330
364
330
2FE
330
303
330
302
330
301
330
300
 75
     1
 76
     0
 52
45.0
 41
0.1
 77
     0
 78
     1
 53
45.0
 43
0.0
 44
0.0
 45
-0.0707106781186548
 46
0.0707106781186548
 79
     0
 98
        1
 10
0.0
 20
0.0
  0
HATCH
  5
3E9
330
71
100
AcDbEntity
  8
1
  6
Continuous
 62
     2
100
AcDbHatch
 10
0.0
 20
0.0
 30
0.0
210
0.0
220
0.0
230
1.0
  2
_USER
 70
     0
 71
     1
 91
        1
 92
        1
 93
       18
 72
     1
 10
96.49131614435811
 20
331.4952792238397
 11
95.68021710688473
 21
331.4952792238397
 72
     1
 10
95.68021710688473
 20
331.4952792238397
 11
95.68021710688473
 21
329.2267350061522
 72
     1
 10
95.68021710688473
 20
329.2267350061522
 11
94.48742440471702
 21
329.2267350061522
 72
     1
 10
94.48742440471702
 20
329.2267350061522
 11
94.48742440471702
 21
331.4952792238397
 72
     1
 10
94.48742440471702
 20
331.4952792238397
 11
93.38378510514892
 21
331.4952792238397
 72
     2
 10
93.38378510514892
 20
330.5407562170136
 40
0.9545230068260935
 50
90.0
 51
109.337143219432
 73
     1
 72
     2
 10
93.23711510704521
 20
330.9587111973965
 40
0.5115800601944143
 50
109.3371432194853
 51
151.4785267424197
 73
     1
 72
     2
 10
93.6144723651266
 20
330.7536397680575
 40
0.941059735334906
 50
151.4785267423609
 51
208.5214732576695
 73
     1
 72
     2
 10
93.23711510704521
 20
330.548568338719
 40
0.5115800601960215
 50
208.5214732576866
 51
246.6277221118449
 73
     1
 72
     2
 10
93.39355513974832
 20
330.910560357429
 40
0.9059297849852801
 50
246.6277221118183
 51
288.4480761180817
 73
     1
 72
     2
 10
92.97538740608641
 20
332.1641061334656
 40
2.227384008972773
 50
288.4480761181333
 51
301.9309089499394
 73
     1
 72
     1
 10
94.15344244811033
 20
330.2737554143158
 11
94.15344244811033
 21
329.4012384075124
 72
     2
 10
92.8175145309936
 20
334.0663207133139
 40
4.852596863498881
 50
74.0200087416618
 51
84.8418552303637
 73
     0
 72
     2
 10
93.10637062572943
 20
330.8664301300923
 40
1.639695123940448
 50
84.8418552303238
 51
164.9381082228988
 73
     0
 72
     2
 10
92.68724278226782
 20
330.7536397680575
 40
1.205656168393002
 50
164.9381082229028
 51
195.0618917770972
 73
     0
 72
     2
 10
93.10637062572943
 20
330.6408494060225
 40
1.639695123940328
 50
195.0618917771089
 51
270.0
 73
     0
 72
     1
 10
93.10637062572943
 20
332.2805445299628
 11
96.49131614435811
 21
332.2805445299633
 72
     1
 10
96.49131614435811
 20
332.2805445299633
 11
96.49131614435811
 21
331.4952792238397
 97
       18
330
2FF
330
395
330
396
330
37E
330
37D
330
363
330
37C
330
37B
330
397
330
37A
330
398
330
379
330
364
330
2FE
330
303
330
302
330
301
330
300
 75
     1
 76
     0
 52
45.0
 41
0.1
 77
     0
 78
     1
 53
45.0
 43
0.0
 44
0.0
 45
-0.0707106781186548
 46
0.0707106781186548
 79
     0
 98
        1
 10
0.0
 20
0.0
  0
HATCH
  5
3EA
330
71
100
AcDbEntity
  8
1
  6
Continuous
 62
     2
100
AcDbHatch
 10
0.0
 20
0.0
 30
0.0
210
0.0
220
0.0
230
1.0
  2
_USER
 70
     0
 71
     1
 91
        1
 92
        1
 93
       14
 72
     2
 10
77.00366914647651
 20
330.6408494060225
 40
1.63969512394062
 50
84.84185523036271
 51
164.9381082228826
 73
     1
 72
     2
 10
76.58454130301371
 20
330.7536397680575
 40
1.205656168390944
 50
164.9381082228765
 51
195.0618917770948
 73
     1
 72
     2
 10
77.00366914647651
 20
330.8664301300923
 40
1.63969512393938
 50
195.0618917770886
 51
275.1581447696396
 73
     1
 72
     2
 10
76.7148130517406
 20
334.0663207133139
 40
4.852596863498166
 50
275.1581447696249
 51
285.9799912583529
 73
     1
 72
     1
 10
78.0507409688584
 20
329.4012384075131
 11
78.0507409688584
 21
330.2737554143163
 72
     2
 10
76.87268592683353
 20
332.1641061334661
 40
2.227384008972656
 50
58.06909105003877
 51
71.55192388186651
 73
     0
 72
     2
 10
77.29085366049432
 20
330.910560357429
 40
0.9059297849849192
 50
71.55192388184209
 51
113.372277888129
 73
     0
 72
     2
 10
77.1344136277923
 20
330.548568338719
 40
0.5115800601948034
 50
113.3722778881726
 51
151.4785267423044
 73
     0
 72
     2
 10
77.51177088587261
 20
330.7536397680575
 40
0.9410597353332545
 50
151.4785267422943
 51
208.5214732577331
 73
     0
 72
     2
 10
77.1344136277923
 20
330.9587111973965
 40
0.5115800601948517
 50
208.5214732576956
 51
246.6277221117996
 73
     0
 72
     2
 10
77.29085366049432
 20
330.5967191786859
 40
0.9059297849853768
 50
246.627722111871
 51
288.4480761181454
 73
     0
 72
     2
 10
76.87268592683353
 20
329.3431734026493
 40
2.227384008973453
 50
288.4480761181326
 51
301.9309089499596
 73
     0
 72
     1
 10
78.0507409688584
 20
331.2335241217992
 11
78.0507409688584
 21
332.1060411286024
 72
     2
 10
76.7148130517406
 20
327.4409588228016
 40
4.852596863497986
 50
74.0200087416471
 51
84.84185523037509
 73
     1
 97
       14
330
39D
330
39E
330
39F
330
3A0
330
365
330
376
330
375
330
374
330
3A1
330
3A2
330
373
330
3A3
330
366
330
372
 75
     1
 76
     0
 52
45.0
 41
0.1
 77
     0
 78
     1
 53
45.0
 43
0.0
 44
0.0
 45
-0.0707106781186548
 46
0.0707106781186548
 79
     0
 98
        1
 10
0.0
 20
0.0
  0
HATCH
  5
3EB
330
71
100
AcDbEntity
  8
1
  6
Continuous
 62
     2
100
AcDbHatch
 10
0.0
 20
0.0
 30
0.0
210
0.0
220
0.0
230
1.0
  2
_USER
 70
     0
 71
     1
 91
        1
 92
        1
 93
       14
 72
     2
 10
77.00366914647651
 20
330.6408494060225
 40
1.63969512394062
 50
84.84185523036271
 51
164.9381082228826
 73
     1
 72
     2
 10
76.58454130301371
 20
330.7536397680575
 40
1.205656168390944
 50
164.9381082228765
 51
195.0618917770948
 73
     1
 72
     2
 10
77.00366914647651
 20
330.8664301300923
 40
1.63969512393938
 50
195.0618917770886
 51
275.1581447696396
 73
     1
 72
     2
 10
76.7148130517406
 20
334.0663207133139
 40
4.852596863498166
 50
275.1581447696249
 51
285.9799912583529
 73
     1
 72
     1
 10
78.0507409688584
 20
329.4012384075131
 11
78.0507409688584
 21
330.2737554143163
 72
     2
 10
76.87268592683353
 20
332.1641061334661
 40
2.227384008972656
 50
58.06909105003877
 51
71.55192388186651
 73
     0
 72
     2
 10
77.29085366049432
 20
330.910560357429
 40
0.9059297849849192
 50
71.55192388184209
 51
113.372277888129
 73
     0
 72
     2
 10
77.1344136277923
 20
330.548568338719
 40
0.5115800601948034
 50
113.3722778881726
 51
151.4785267423044
 73
     0
 72
     2
 10
77.51177088587261
 20
330.7536397680575
 40
0.9410597353332545
 50
151.4785267422943
 51
208.5214732577331
 73
     0
 72
     2
 10
77.1344136277923
 20
330.9587111973965
 40
0.5115800601948517
 50
208.5214732576956
 51
246.6277221117996
 73
     0
 72
     2
 10
77.29085366049432
 20
330.5967191786859
 40
0.9059297849853768
 50
246.627722111871
 51
288.4480761181454
 73
     0
 72
     2
 10
76.87268592683353
 20
329.3431734026493
 40
2.227384008973453
 50
288.4480761181326
 51
301.9309089499596
 73
     0
 72
     1
 10
78.0507409688584
 20
331.2335241217992
 11
78.0507409688584
 21
332.1060411286024
 72
     2
 10
76.7148130517406
 20
327.4409588228016
 40
4.852596863497986
 50
74.0200087416471
 51
84.84185523037509
 73
     1
 97
       14
330
39D
330
39E
330
39F
330
3A0
330
365
330
376
330
375
330
374
330
3A1
330
3A2
330
373
330
3A3
330
366
330
372
 75
     1
 76
     0
 52
45.0
 41
0.1
 77
     0
 78
     1
 53
45.0
 43
0.0
 44
0.0
 45
-0.0707106781186548
 46
0.0707106781186548
 79
     0
 98
        1
 10
0.0
 20
0.0
  0
ENDBLK
  5
73
330
71
100
AcDbEntity
  8
0
100
AcDbBlockEnd
  0
BLOCK
  5
75
330
74
100
AcDbEntity
  8
0
100
AcDbBlockBegin
  2
_punkt
 70
     0
 10
193.888116553841
 20
321.9332350061359
 30
0.0
  3
_punkt
  1

  0
LINE
  5
3EC
330
74
100
AcDbEntity
  8
1
  6
Continuous
 62
     2
100
AcDbLine
 10
193.888116553841
 20
321.9332350061359
 30
0.0
 11
198.88811655384
 21
321.9332350061359
 31
0.0
  0
LINE
  5
3ED
330
74
100
AcDbEntity
  8
1
  6
Continuous
 62
     2
100
AcDbLine
 10
193.888116553841
 20
321.9332350061359
 30
0.0
 11
193.888116553841
 21
316.9332350061358
 31
0.0
  0
ENDBLK
  5
76
330
74
100
AcDbEntity
  8
0
100
AcDbBlockEnd
  0
BLOCK
  5
7A
330
77
100
AcDbEntity
  8
0
100
AcDbBlockBegin
  2
A4I_CS
 70
     0
 10
193.888116553841
 20
316.9332350061358
 30
0.0
  3
A4I_CS
  1

  0
INSERT
  5
78
330
77
100
AcDbEntity
  8
1
100
AcDbBlockReference
  2
_rahmen
 10
193.888116553841
 20
316.9332350061358
 30
0.0
  0
INSERT
  5
79
330
77
100
AcDbEntity
  8
1
100
AcDbBlockReference
  2
_punkt
 10
193.888116553841
 20
321.9332350061359
 30
0.0
  0
ENDBLK
  5
7B
330
77
100
AcDbEntity
  8
0
100
AcDbBlockEnd
  0
BLOCK
  5
84
330
7C
100
AcDbEntity
  8
0
100
AcDbBlockBegin
  2
1
 70
     0
 10
0.0
 20
0.0
 30
0.0
  3
1
  1

  0
INSERT
  5
7D
330
7C
100
AcDbEntity
  8
0
100
AcDbBlockReference
  2
Drfsicht1
 10
22.0
 20
387.0
 30
0.0
  0
INSERT
  5
7E
330
7C
100
AcDbEntity
  8
0
100
AcDbBlockReference
  2
Gen1
 10
128.9999999999996
 20
401.0
 30
0.0
  0
INSERT
  5
7F
330
7C
100
AcDbEntity
  8
0
100
AcDbBlockReference
  2
Rckans1
 10
130.580881
 20
464.2512999999998
 30
0.0
  0
INSERT
  5
80
330
7C
100
AcDbEntity
  8
0
100
AcDbBlockReference
  2
SA_Links1
 10
74.79044100000122
 20
464.2513
 30
0.0
  0
INSERT
  5
81
330
7C
100
AcDbEntity
  8
0
100
AcDbBlockReference
  2
SA_Rechts1
 10
-56.9717710000003
 20
464.2512999999998
 30
0.0
  0
INSERT
  5
82
330
7C
100
AcDbEntity
  8
0
100
AcDbBlockReference
  2
Vordans1
 10
22.00000000000021
 20
464.2513
 30
0.0
  0
INSERT
  5
83
330
7C
100
AcDbEntity
  8
0
100
AcDbBlockReference
  2
A4I_CS
 10
193.888116553841
 20
316.9332350061358
 30
0.0
  0
ENDBLK
  5
85
330
7C
100
AcDbEntity
  8
0
100
AcDbBlockEnd
  0
BLOCK
  5
EF
330
E6
100
AcDbEntity
  8
0
100
AcDbBlockBegin
  2
*D17
 70
     1
 10
0.0
 20
0.0
 30
0.0
  3
*D17
  1

  0
LINE
  5
E7
330
E6
100
AcDbEntity
  8
1
  6
Continuous
 62
     2
100
AcDbLine
 10
-17.74212315536472
 20
396.5749999523169
 30
0.0
 11
-17.74212315536472
 21
389.5749999523169
 31
0.0
  0
LINE
  5
E8
330
E6
100
AcDbEntity
  8
1
  6
Continuous
 62
     2
100
AcDbLine
 10
-17.74212315536472
 20
389.5749999523169
 30
0.0
 11
-17.74212315536472
 21
384.4249999523163
 31
0.0
  0
LINE
  5
E9
330
E6
100
AcDbEntity
  8
1
  6
Continuous
 62
     2
100
AcDbLine
 10
-17.74212315536472
 20
384.4249999523163
 30
0.0
 11
-17.74212315536472
 21
377.4249999523163
 31
0.0
  0
LINE
  5
EA
330
E6
100
AcDbEntity
  8
1
  6
Continuous
 62
     2
100
AcDbLine
 10
-7.74212315536473
 20
389.5749999523169
 30
0.0
 11
-19.24212315536472
 21
389.5749999523169
 31
0.0
  0
LINE
  5
EB
330
E6
100
AcDbEntity
  8
1
  6
Continuous
 62
     2
100
AcDbLine
 10
-7.74212315536472
 20
384.4249999523163
 30
0.0
 11
-19.24212315536472
 21
384.4249999523163
 31
0.0
  0
SOLID
  5
EC
330
E6
100
AcDbEntity
  8
1
 62
     2
100
AcDbTrace
 10
-18.20290689692061
 20
393.0749999523169
 30
0.0
 11
-17.28133941380883
 21
393.0749999523169
 31
0.0
 12
-17.74212315536472
 22
389.5749999523169
 32
0.0
 13
-17.74212315536472
 23
389.5749999523169
 33
0.0
  0
SOLID
  5
ED
330
E6
100
AcDbEntity
  8
1
 62
     2
100
AcDbTrace
 10
-17.28133941380884
 20
380.9249999523163
 30
0.0
 11
-18.20290689692061
 21
380.9249999523163
 31
0.0
 12
-17.74212315536472
 22
384.4249999523163
 32
0.0
 13
-17.74212315536472
 23
384.4249999523163
 33
0.0
  0
MTEXT
  5
EE
330
E6
100
AcDbEntity
  8
1
 62
     3
100
AcDbMText
 10
-19.59212315536472
 20
383.0914032096682
 30
0.0
 40
3.5
 41
0.0
 71
     7
 72
     1
  1
5,15
  7
CONVERTER_11
 11
0.0
 21
1.0
 31
0.0
 73
     1
 44
0.60024009603842
  0
ENDBLK
  5
F0
330
E6
100
AcDbEntity
  8
0
100
AcDbBlockEnd
  0
BLOCK
  5
285
330
27E
100
AcDbEntity
  8
0
100
AcDbBlockBegin
  2
*D18
 70
     1
 10
0.0
 20
0.0
 30
0.0
  3
*D18
  1

  0
LINE
  5
27F
330
27E
100
AcDbEntity
  8
1
  6
Continuous
 62
     2
100
AcDbLine
 10
51.70787684463546
 20
408.3962542887938
 30
0.0
 11
-7.74212315536448
 21
408.3962542887938
 31
0.0
  0
LINE
  5
280
330
27E
100
AcDbEntity
  8
1
  6
Continuous
 62
     2
100
AcDbLine
 10
51.70787684463546
 20
454.7012995829235
 30
0.0
 11
51.70787684463546
 21
406.3962542887938
 31
0.0
  0
LINE
  5
281
330
27E
100
AcDbEntity
  8
1
  6
Continuous
 62
     2
100
AcDbLine
 10
-7.74212315536448
 20
446.6012995829251
 30
0.0
 11
-7.74212315536448
 21
406.3962542887938
 31
0.0
  0
SOLID
  5
282
330
27E
100
AcDbEntity
  8
1
 62
     2
100
AcDbTrace
 10
48.20787684463546
 20
407.9354705472379
 30
0.0
 11
48.20787684463546
 21
408.8570380303497
 31
0.0
 12
51.70787684463546
 22
408.3962542887938
 32
0.0
 13
51.70787684463546
 23
408.3962542887938
 33
0.0
  0
SOLID
  5
283
330
27E
100
AcDbEntity
  8
1
 62
     2
100
AcDbTrace
 10
-4.24212315536448
 20
408.8570380303497
 30
0.0
 11
-4.24212315536448
 21
407.9354705472379
 31
0.0
 12
-7.74212315536448
 22
408.3962542887938
 32
0.0
 13
-7.74212315536448
 23
408.3962542887938
 33
0.0
  0
MTEXT
  5
284
330
27E
100
AcDbEntity
  8
1
 62
     3
100
AcDbMText
 10
18.41623621270245
 20
410.7462542887938
 30
0.0
 40
3.5
 41
0.0
 71
     7
 72
     1
  1
59,5
  7
CONVERTER_11
 11
0.9999999999970619
 21
2.424068405545306E-6
 31
0.0
 73
     1
 44
0.60024009603842
  0
ENDBLK
  5
286
330
27E
100
AcDbEntity
  8
0
100
AcDbBlockEnd
  0
BLOCK
  5
290
330
289
100
AcDbEntity
  8
0
100
AcDbBlockBegin
  2
*D19
 70
     1
 10
0.0
 20
0.0
 30
0.0
  3
*D19
  1

  0
LINE
  5
28A
330
289
100
AcDbEntity
  8
1
  6
Continuous
 62
     2
100
AcDbLine
 10
23.25787684463606
 20
419.691922167269
 30
0.0
 11
51.70787684463546
 21
419.691922167269
 31
0.0
  0
LINE
  5
28B
330
289
100
AcDbEntity
  8
1
  6
Continuous
 62
     2
100
AcDbLine
 10
23.25787684463606
 20
446.8394970626648
 30
0.0
 11
23.25787684463606
 21
417.691922167269
 31
0.0
  0
LINE
  5
28C
330
289
100
AcDbEntity
  8
1
  6
Continuous
 62
     2
100
AcDbLine
 10
51.70787684463546
 20
452.4133972510833
 30
0.0
 11
51.70787684463546
 21
417.691922167269
 31
0.0
  0
SOLID
  5
28D
330
289
100
AcDbEntity
  8
1
 62
     2
100
AcDbTrace
 10
26.75787684463606
 20
420.1527059088249
 30
0.0
 11
26.75787684463606
 21
419.2311384257131
 31
0.0
 12
23.25787684463606
 22
419.691922167269
 32
0.0
 13
23.25787684463606
 23
419.691922167269
 33
0.0
  0
SOLID
  5
28E
330
289
100
AcDbEntity
  8
1
 62
     2
100
AcDbTrace
 10
48.20787684463546
 20
419.2311384257131
 30
0.0
 11
48.20787684463546
 21
420.1527059088249
 31
0.0
 12
51.70787684463546
 22
419.691922167269
 32
0.0
 13
51.70787684463546
 23
419.691922167269
 33
0.0
  0
MTEXT
  5
28F
330
289
100
AcDbEntity
  8
1
 62
     3
100
AcDbMText
 10
33.75818643845289
 20
422.041922167269
 30
0.0
 40
3.5
 41
0.0
 71
     7
 72
     1
  1
28,5
  7
CONVERTER_11
 11
0.9999999999970619
 21
2.424068405545306E-6
 31
0.0
 73
     1
 44
0.60024009603842
  0
ENDBLK
  5
291
330
289
100
AcDbEntity
  8
0
100
AcDbBlockEnd
  0
BLOCK
  5
29B
330
294
100
AcDbEntity
  8
0
100
AcDbBlockBegin
  2
*D20
 70
     1
 10
0.0
 20
0.0
 30
0.0
  3
*D20
  1

  0
LINE
  5
295
330
294
100
AcDbEntity
  8
1
  6
Continuous
 62
     2
100
AcDbLine
 10
23.25787684463605
 20
429.16003814222
 30
0.0
 11
40.75787684463627
 21
429.16003814222
 31
0.0
  0
LINE
  5
296
330
294
100
AcDbEntity
  8
1
  6
Continuous
 62
     2
100
AcDbLine
 10
23.25787684463605
 20
446.8394970626648
 30
0.0
 11
23.25787684463605
 21
427.16003814222
 31
0.0
  0
LINE
  5
297
330
294
100
AcDbEntity
  8
1
  6
Continuous
 62
     2
100
AcDbLine
 10
40.75787684463627
 20
448.4012995829249
 30
0.0
 11
40.75787684463627
 21
427.16003814222
 31
0.0
  0
SOLID
  5
298
330
294
100
AcDbEntity
  8
1
 62
     2
100
AcDbTrace
 10
26.75787684463605
 20
429.6208218837759
 30
0.0
 11
26.75787684463605
 21
428.6992544006641
 31
0.0
 12
23.25787684463605
 22
429.16003814222
 32
0.0
 13
23.25787684463605
 23
429.16003814222
 33
0.0
  0
SOLID
  5
299
330
294
100
AcDbEntity
  8
1
 62
     2
100
AcDbTrace
 10
37.25787684463627
 20
428.6992544006641
 30
0.0
 11
37.25787684463627
 21
429.6208218837759
 31
0.0
 12
40.75787684463627
 22
429.16003814222
 32
0.0
 13
40.75787684463627
 23
429.16003814222
 33
0.0
  0
MTEXT
  5
29A
330
294
100
AcDbEntity
  8
1
 62
     3
100
AcDbMText
 10
27.73514361465508
 20
431.51003814222
 30
0.0
 40
3.5
 41
0.0
 71
     7
 72
     1
  1
17,5
  7
CONVERTER_11
 11
0.9999999999970619
 21
2.424068405545306E-6
 31
0.0
 73
     1
 44
0.60024009603842
  0
ENDBLK
  5
29C
330
294
100
AcDbEntity
  8
0
100
AcDbBlockEnd
  0
BLOCK
  5
2A6
330
29F
100
AcDbEntity
  8
0
100
AcDbBlockBegin
  2
*D21
 70
     1
 10
0.0
 20
0.0
 30
0.0
  3
*D21
  1

  0
LINE
  5
2A0
330
29F
100
AcDbEntity
  8
1
  6
Continuous
 62
     2
100
AcDbLine
 10
-21.99800285696846
 20
485.001299582924
 30
0.0
 11
-21.99800285696846
 21
443.5012995829249
 31
0.0
  0
LINE
  5
2A1
330
29F
100
AcDbEntity
  8
1
  6
Continuous
 62
     2
100
AcDbLine
 10
19.69822246966128
 20
485.001299582924
 30
0.0
 11
-23.49800285696846
 21
485.001299582924
 31
0.0
  0
LINE
  5
2A2
330
29F
100
AcDbEntity
  8
1
  6
Continuous
 62
     2
100
AcDbLine
 10
5.6989331915035
 20
443.5012995829249
 30
0.0
 11
-23.49800285696846
 21
443.5012995829249
 31
0.0
  0
SOLID
  5
2A3
330
29F
100
AcDbEntity
  8
1
 62
     2
100
AcDbTrace
 10
-21.53721911541258
 20
481.501299582924
 30
0.0
 11
-22.45878659852434
 21
481.501299582924
 31
0.0
 12
-21.99800285696846
 22
485.001299582924
 32
0.0
 13
-21.99800285696846
 23
485.001299582924
 33
0.0
  0
SOLID
  5
2A4
330
29F
100
AcDbEntity
  8
1
 62
     2
100
AcDbTrace
 10
-22.45878659852434
 20
447.0012995829249
 30
0.0
 11
-21.53721911541257
 21
447.0012995829249
 31
0.0
 12
-21.99800285696846
 22
443.5012995829249
 32
0.0
 13
-21.99800285696846
 23
443.5012995829249
 33
0.0
  0
MTEXT
  5
2A5
330
29F
100
AcDbEntity
  8
1
 62
     3
100
AcDbMText
 10
-23.84800285696846
 20
461.019982253688
 30
0.0
 40
3.5
 41
0.0
 71
     7
 72
     1
  1
41,5
  7
CONVERTER_11
 11
0.0
 21
1.0
 31
0.0
 73
     1
 44
0.60024009603842
  0
ENDBLK
  5
2A7
330
29F
100
AcDbEntity
  8
0
100
AcDbBlockEnd
  0
BLOCK
  5
2B1
330
2AA
100
AcDbEntity
  8
0
100
AcDbBlockBegin
  2
*D22
 70
     1
 10
0.0
 20
0.0
 30
0.0
  3
*D22
  1

  0
LINE
  5
2AB
330
2AA
100
AcDbEntity
  8
1
  6
Continuous
 62
     2
100
AcDbLine
 10
-13.89931107730597
 20
485.001299582924
 30
0.0
 11
-13.89931107730597
 21
449.501299582925
 31
0.0
  0
LINE
  5
2AC
330
2AA
100
AcDbEntity
  8
1
  6
Continuous
 62
     2
100
AcDbLine
 10
19.69822246966127
 20
485.001299582924
 30
0.0
 11
-15.39931107730597
 21
485.001299582924
 31
0.0
  0
LINE
  5
2AD
330
2AA
100
AcDbEntity
  8
1
  6
Continuous
 62
     2
100
AcDbLine
 10
7.65787684463609
 20
449.501299582925
 30
0.0
 11
-15.39931107730597
 21
449.501299582925
 31
0.0
  0
SOLID
  5
2AE
330
2AA
100
AcDbEntity
  8
1
 62
     2
100
AcDbTrace
 10
-13.43852733575009
 20
481.501299582924
 30
0.0
 11
-14.36009481886186
 21
481.501299582924
 31
0.0
 12
-13.89931107730597
 22
485.001299582924
 32
0.0
 13
-13.89931107730597
 23
485.001299582924
 33
0.0
  0
SOLID
  5
2AF
330
2AA
100
AcDbEntity
  8
1
 62
     2
100
AcDbTrace
 10
-14.36009481886186
 20
453.001299582925
 30
0.0
 11
-13.43852733575008
 21
453.001299582925
 31
0.0
 12
-13.89931107730597
 22
449.501299582925
 32
0.0
 13
-13.89931107730597
 23
449.501299582925
 33
0.0
  0
MTEXT
  5
2B0
330
2AA
100
AcDbEntity
  8
1
 62
     3
100
AcDbMText
 10
-15.74931107730597
 20
462.096736053507
 30
0.0
 40
3.5
 41
0.0
 71
     7
 72
     1
  1
35,5
  7
CONVERTER_11
 11
0.0
 21
1.0
 31
0.0
 73
     1
 44
0.60024009603842
  0
ENDBLK
  5
2B2
330
2AA
100
AcDbEntity
  8
0
100
AcDbBlockEnd
  0
ENDSEC
  0
SECTION
  2
ENTITIES
  0
INSERT
  5
86
330
1F
100
AcDbEntity
  8
1
100
AcDbBlockReference
  2
1
 10
0.0
 20
0.0
 30
0.0
  0
ENDSEC
  0
SECTION
  2
OBJECTS
  0
DICTIONARY
  5
C
330
0
100
AcDbDictionary
281
     1
  3
ACAD_GROUP
350
D
  3
ACAD_LAYOUT
350
1A
  3
ACAD_MATERIAL
350
3B
  3
ACAD_MLEADERSTYLE
350
415
  3
ACAD_MLINESTYLE
350
17
  3
ACAD_PLOTSETTINGS
350
19
  3
ACAD_PLOTSTYLENAME
350
E
  3
ACAD_TABLESTYLE
350
414
  3
ACAD_VISUALSTYLE
350
2A
  0
DICTIONARY
  5
D
102
{ACAD_REACTORS
330
C
102
}
330
C
100
AcDbDictionary
281
     1
  0
DICTIONARY
  5
1A
102
{ACAD_REACTORS
330
C
102
}
330
C
100
AcDbDictionary
281
     1
  3
Layout1
350
1E
  3
Layout2
350
26
  3
Model
350
22
  0
DICTIONARY
  5
3B
102
{ACAD_REACTORS
330
C
102
}
330
C
100
AcDbDictionary
281
     1
  3
ByBlock
350
3D
  3
ByLayer
350
3C
  3
Global
350
3E
  0
DICTIONARY
  5
415
102
{ACAD_REACTORS
330
C
102
}
330
C
100
AcDbDictionary
281
     1
  0
DICTIONARY
  5
17
102
{ACAD_REACTORS
330
C
102
}
330
C
100
AcDbDictionary
281
     1
  3
Standard
350
18
  0
DICTIONARY
  5
19
102
{ACAD_REACTORS
330
C
102
}
330
C
100
AcDbDictionary
281
     1
  0
ACDBDICTIONARYWDFLT
  5
E
102
{ACAD_REACTORS
330
C
102
}
330
C
100
AcDbDictionary
281
     1
  3
Normal
350
F
100
AcDbDictionaryWithDefault
340
F
  0
DICTIONARY
  5
414
102
{ACAD_REACTORS
330
C
102
}
330
C
100
AcDbDictionary
281
     1
  0
DICTIONARY
  5
2A
102
{ACAD_REACTORS
330
C
102
}
330
C
100
AcDbDictionary
281
     1
  3
2dWireframe
350
2F
  3
3D Hidden
350
31
  3
3dWireframe
350
30
  3
Basic
350
32
  3
Brighten
350
36
  3
ColorChange
350
3A
  3
Conceptual
350
34
  3
Dim
350
35
  3
Facepattern
350
39
  3
Flat
350
2B
  3
FlatWithEdges
350
2C
  3
Gouraud
350
2D
  3
GouraudWithEdges
350
2E
  3
Linepattern
350
38
  3
Realistic
350
33
  3
Thicken
350
37
  0
LAYOUT
  5
1E
102
{ACAD_REACTORS
330
1A
102
}
330
1A
100
AcDbPlotSettings
  1

  2
none_device
  4

  6

 40
0.0
 41
0.0
 42
0.0
 43
0.0
 44
0.0
 45
0.0
 46
0.0
 47
0.0
 48
0.0
 49
0.0
140
0.0
141
0.0
142
1.0
143
1.0
 70
   688
 72
     0
 73
     0
 74
     5
  7

 75
    16
 76
     0
 77
     2
 78
   300
147
1.0
148
0.0
149
0.0
100
AcDbLayout
  1
Layout1
 70
     1
 71
     1
 10
0.0
 20
0.0
 11
12.0
 21
9.0
 12
0.0
 22
0.0
 32
0.0
 14
1.00000000000000E+20
 24
1.00000000000000E+20
 34
1.00000000000000E+20
 15
-1.00000000000000E+20
 25
-1.00000000000000E+20
 35
-1.00000000000000E+20
146
0.0
 13
0.0
 23
0.0
 33
0.0
 16
1.0
 26
0.0
 36
0.0
 17
0.0
 27
1.0
 37
0.0
 76
     0
330
1B
  0
LAYOUT
  5
26
102
{ACAD_REACTORS
330
1A
102
}
330
1A
100
AcDbPlotSettings
  1

  2
none_device
  4

  6

 40
0.0
 41
0.0
 42
0.0
 43
0.0
 44
0.0
 45
0.0
 46
0.0
 47
0.0
 48
0.0
 49
0.0
140
0.0
141
0.0
142
1.0
143
1.0
 70
   688
 72
     0
 73
     0
 74
     5
  7

 75
    16
 76
     0
 77
     2
 78
   300
147
1.0
148
0.0
149
0.0
100
AcDbLayout
  1
Layout2
 70
     1
 71
     2
 10
0.0
 20
0.0
 11
0.0
 21
0.0
 12
0.0
 22
0.0
 32
0.0
 14
0.0
 24
0.0
 34
0.0
 15
0.0
 25
0.0
 35
0.0
146
0.0
 13
0.0
 23
0.0
 33
0.0
 16
1.0
 26
0.0
 36
0.0
 17
0.0
 27
1.0
 37
0.0
 76
     0
330
23
  0
LAYOUT
  5
22
102
{ACAD_REACTORS
330
1A
102
}
330
1A
100
AcDbPlotSettings
  1

  2
none_device
  4

  6

 40
0.0
 41
0.0
 42
0.0
 43
0.0
 44
0.0
 45
0.0
 46
0.0
 47
0.0
 48
0.0
 49
0.0
140
0.0
141
0.0
142
1.0
143
1.0
 70
  1712
 72
     0
 73
     0
 74
     0
  7

 75
     0
 76
     0
 77
     2
 78
   300
147
1.0
148
0.0
149
0.0
100
AcDbLayout
  1
Model
 70
     1
 71
     0
 10
0.0
 20
0.0
 11
12.0
 21
9.0
 12
0.0
 22
0.0
 32
0.0
 14
-98.11188344615806
 24
316.9332350061358
 34
0.0
 15
198.88811655384
 25
526.9332350061359
 35
0.0
146
0.0
 13
0.0
 23
0.0
 33
0.0
 16
1.0
 26
0.0
 36
0.0
 17
0.0
 27
1.0
 37
0.0
 76
     0
330
1F
331
29
  0
MATERIAL
  5
3D
102
{ACAD_REACTORS
330
3B
102
}
102
{ACAD_XDICTIONARY
360
410
102
}
330
3B
100
AcDbMaterial
  1
ByBlock
  0
MATERIAL
  5
3C
102
{ACAD_REACTORS
330
3B
102
}
102
{ACAD_XDICTIONARY
360
40E
102
}
330
3B
100
AcDbMaterial
  1
ByLayer
  0
MATERIAL
  5
3E
102
{ACAD_REACTORS
330
3B
102
}
102
{ACAD_XDICTIONARY
360
412
102
}
330
3B
100
AcDbMaterial
  1
Global
  0
MLINESTYLE
  5
18
102
{ACAD_REACTORS
330
17
102
}
330
17
100
AcDbMlineStyle
  2
Standard
 70
     0
  3

 62
   256
 51
90.0
 52
90.0
 71
     2
 49
0.5
 62
   256
  6
BYLAYER
 49
-0.5
 62
   256
  6
BYLAYER
  0
ACDBPLACEHOLDER
  5
F
102
{ACAD_REACTORS
330
E
102
}
330
E
  0
VISUALSTYLE
  5
2F
102
{ACAD_REACTORS
330
2A
102
}
102
{ACAD_XDICTIONARY
360
3F6
102
}
330
2A
100
AcDbVisualStyle
  2
2dWireframe
 70
     4
 71
     0
 72
     2
 73
     0
 90
        0
 40
-0.6
 41
-30.0
 62
     5
 63
     7
421
 16777215
 74
     1
 91
        4
 64
     7
 65
   257
 75
     1
175
     1
 42
1.0
 92
        0
 66
   257
 43
1.0
 76
     1
 77
     6
 78
     2
 67
     7
 79
     5
170
     0
171
     0
290
     0
174
     0
 93
        1
 44
0.0
173
     0
291
     0
 45
0.0
1001
ACAD
1000
AcDbSavedByObjectVersion
1070
     0
  0
VISUALSTYLE
  5
31
102
{ACAD_REACTORS
330
2A
102
}
102
{ACAD_XDICTIONARY
360
3FA
102
}
330
2A
100
AcDbVisualStyle
  2
3D Hidden
 70
     6
 71
     1
 72
     2
 73
     2
 90
        0
 40
-0.6
 41
-30.0
 62
     5
 63
     7
421
 16777215
 74
     2
 91
        2
 64
     7
 65
   257
 75
     2
175
     1
 42
40.0
 92
        0
 66
   257
 43
1.0
 76
     1
 77
     6
 78
     2
 67
     7
 79
     3
170
     0
171
     0
290
     0
174
     0
 93
        1
 44
0.0
173
     0
291
     0
 45
0.0
1001
ACAD
1000
AcDbSavedByObjectVersion
1070
     0
  0
VISUALSTYLE
  5
30
102
{ACAD_REACTORS
330
2A
102
}
102
{ACAD_XDICTIONARY
360
3F8
102
}
330
2A
100
AcDbVisualStyle
  2
3dWireframe
 70
     5
 71
     0
 72
     2
 73
     0
 90
        0
 40
-0.6
 41
-30.0
 62
     5
 63
     7
421
 16777215
 74
     1
 91
        4
 64
     7
 65
   257
 75
     1
175
     1
 42
1.0
 92
        0
 66
   257
 43
1.0
 76
     1
 77
     6
 78
     2
 67
     7
 79
     5
170
     0
171
     0
290
     0
174
     0
 93
        1
 44
0.0
173
     0
291
     0
 45
0.0
1001
ACAD
1000
AcDbSavedByObjectVersion
1070
     0
  0
VISUALSTYLE
  5
32
102
{ACAD_REACTORS
330
2A
102
}
102
{ACAD_XDICTIONARY
360
3FC
102
}
330
2A
100
AcDbVisualStyle
  2
Basic
 70
     7
 71
     1
 72
     0
 73
     1
 90
        0
 40
-0.6
 41
-30.0
 62
     5
 63
     7
421
 16777215
 74
     0
 91
        4
 64
     7
 65
   257
 75
     1
175
     1
 42
1.0
 92
        8
 66
     7
 43
1.0
 76
     1
 77
     6
 78
     2
 67
     7
 79
     5
170
     0
171
     0
290
     0
174
     0
 93
        1
 44
0.0
173
     0
291
     1
 45
0.0
1001
ACAD
1000
AcDbSavedByObjectVersion
1070
     0
  0
VISUALSTYLE
  5
36
102
{ACAD_REACTORS
330
2A
102
}
102
{ACAD_XDICTIONARY
360
404
102
}
330
2A
100
AcDbVisualStyle
  2
Brighten
 70
    12
 71
     2
 72
     2
 73
     0
 90
        0
 40
-0.6
 41
-30.0
 62
     5
 63
     7
421
 16777215
 74
     1
 91
        4
 64
     7
 65
   257
 75
     1
175
     1
 42
1.0
 92
        8
 66
     7
 43
1.0
 76
     1
 77
     6
 78
     2
 67
     7
 79
     5
170
     0
171
     0
290
     0
174
     0
 93
        1
 44
50.0
173
     0
291
     1
 45
0.0
1001
ACAD
1000
AcDbSavedByObjectVersion
1070
     0
  0
VISUALSTYLE
  5
3A
102
{ACAD_REACTORS
330
2A
102
}
102
{ACAD_XDICTIONARY
360
40C
102
}
330
2A
100
AcDbVisualStyle
  2
ColorChange
 70
    16
 71
     2
 72
     2
 73
     3
 90
        0
 40
-0.6
 41
-30.0
 62
     5
 63
     8
421
  8421504
 74
     1
 91
        4
 64
     7
 65
   257
 75
     1
175
     1
 42
1.0
 92
        8
 66
     8
424
  8421504
 43
1.0
 76
     1
 77
     6
 78
     2
 67
     7
 79
     5
170
     0
171
     0
290
     0
174
     0
 93
        1
 44
0.0
173
     0
291
     1
 45
0.0
1001
ACAD
1000
AcDbSavedByObjectVersion
1070
     0
  0
VISUALSTYLE
  5
34
102
{ACAD_REACTORS
330
2A
102
}
102
{ACAD_XDICTIONARY
360
400
102
}
330
2A
100
AcDbVisualStyle
  2
Conceptual
 70
     9
 71
     3
 72
     2
 73
     0
 90
        0
 40
-0.6
 41
-30.0
 62
     5
 63
     7
421
 16777215
 74
     2
 91
        2
 64
     7
 65
   257
 75
     1
175
     1
 42
40.0
 92
        8
 66
     7
 43
1.0
 76
     1
 77
     6
 78
     2
 67
     7
 79
     3
170
     0
171
     0
290
     0
174
     0
 93
        1
 44
0.0
173
     0
291
     0
 45
0.0
1001
ACAD
1000
AcDbSavedByObjectVersion
1070
     0
  0
VISUALSTYLE
  5
35
102
{ACAD_REACTORS
330
2A
102
}
102
{ACAD_XDICTIONARY
360
402
102
}
330
2A
100
AcDbVisualStyle
  2
Dim
 70
    11
 71
     2
 72
     2
 73
     0
 90
        0
 40
-0.6
 41
-30.0
 62
     5
 63
     7
421
 16777215
 74
     1
 91
        4
 64
     7
 65
   257
 75
     1
175
     1
 42
1.0
 92
        8
 66
     7
 43
1.0
 76
     1
 77
     6
 78
     2
 67
     7
 79
     5
170
     0
171
     0
290
     0
174
     0
 93
        1
 44
-50.0
173
     0
291
     1
 45
0.0
1001
ACAD
1000
AcDbSavedByObjectVersion
1070
     0
  0
VISUALSTYLE
  5
39
102
{ACAD_REACTORS
330
2A
102
}
102
{ACAD_XDICTIONARY
360
40A
102
}
330
2A
100
AcDbVisualStyle
  2
Facepattern
 70
    15
 71
     2
 72
     2
 73
     0
 90
        0
 40
-0.6
 41
-30.0
 62
     5
 63
     7
421
 16777215
 74
     1
 91
        4
 64
     7
 65
   257
 75
     1
175
     1
 42
1.0
 92
        8
 66
     7
 43
1.0
 76
     1
 77
     6
 78
     2
 67
     7
 79
     5
170
     0
171
     0
290
     0
174
     0
 93
        1
 44
0.0
173
     0
291
     1
 45
0.0
1001
ACAD
1000
AcDbSavedByObjectVersion
1070
     0
  0
VISUALSTYLE
  5
2B
102
{ACAD_REACTORS
330
2A
102
}
102
{ACAD_XDICTIONARY
360
3EE
102
}
330
2A
100
AcDbVisualStyle
  2
Flat
 70
     0
 71
     2
 72
     1
 73
     1
 90
        2
 40
-0.6
 41
30.0
 62
     5
 63
     7
421
 16777215
 74
     0
 91
        4
 64
     7
 65
   257
 75
     1
175
     1
 42
1.0
 92
        8
 66
     7
 43
1.0
 76
     1
 77
     6
 78
     2
 67
     7
 79
     5
170
     0
171
     0
290
     0
174
     0
 93
       13
 44
0.0
173
     0
291
     1
 45
0.0
1001
ACAD
1000
AcDbSavedByObjectVersion
1070
     0
  0
VISUALSTYLE
  5
2C
102
{ACAD_REACTORS
330
2A
102
}
102
{ACAD_XDICTIONARY
360
3F0
102
}
330
2A
100
AcDbVisualStyle
  2
FlatWithEdges
 70
     1
 71
     2
 72
     1
 73
     1
 90
        2
 40
-0.6
 41
30.0
 62
     5
 63
     7
421
 16777215
 74
     1
 91
        4
 64
     7
 65
   257
 75
     1
175
     1
 42
1.0
 92
        0
 66
   257
 43
1.0
 76
     1
 77
     6
 78
     2
 67
     7
 79
     5
170
     0
171
     0
290
     0
174
     0
 93
       13
 44
0.0
173
     0
291
     1
 45
0.0
1001
ACAD
1000
AcDbSavedByObjectVersion
1070
     0
  0
VISUALSTYLE
  5
2D
102
{ACAD_REACTORS
330
2A
102
}
102
{ACAD_XDICTIONARY
360
3F2
102
}
330
2A
100
AcDbVisualStyle
  2
Gouraud
 70
     2
 71
     2
 72
     2
 73
     1
 90
        2
 40
-0.6
 41
30.0
 62
     5
 63
     7
421
 16777215
 74
     0
 91
        4
 64
     7
 65
   257
 75
     1
175
     1
 42
1.0
 92
        0
 66
     7
 43
1.0
 76
     1
 77
     6
 78
     2
 67
     7
 79
     5
170
     0
171
     0
290
     0
174
     0
 93
       13
 44
0.0
173
     0
291
     1
 45
0.0
1001
ACAD
1000
AcDbSavedByObjectVersion
1070
     0
  0
VISUALSTYLE
  5
2E
102
{ACAD_REACTORS
330
2A
102
}
102
{ACAD_XDICTIONARY
360
3F4
102
}
330
2A
100
AcDbVisualStyle
  2
GouraudWithEdges
 70
     3
 71
     2
 72
     2
 73
     1
 90
        2
 40
-0.6
 41
30.0
 62
     5
 63
     7
421
 16777215
 74
     1
 91
        4
 64
     7
 65
   257
 75
     1
175
     1
 42
1.0
 92
        0
 66
   257
 43
1.0
 76
     1
 77
     6
 78
     2
 67
     7
 79
     5
170
     0
171
     0
290
     0
174
     0
 93
       13
 44
0.0
173
     0
291
     1
 45
0.0
1001
ACAD
1000
AcDbSavedByObjectVersion
1070
     0
  0
VISUALSTYLE
  5
38
102
{ACAD_REACTORS
330
2A
102
}
102
{ACAD_XDICTIONARY
360
408
102
}
330
2A
100
AcDbVisualStyle
  2
Linepattern
 70
    14
 71
     2
 72
     2
 73
     0
 90
        0
 40
-0.6
 41
-30.0
 62
     5
 63
     7
421
 16777215
 74
     1
 91
        4
 64
     7
 65
   257
 75
     7
175
     7
 42
1.0
 92
        8
 66
     7
 43
1.0
 76
     1
 77
     6
 78
     2
 67
     7
 79
     5
170
     0
171
     0
290
     0
174
     0
 93
        1
 44
0.0
173
     0
291
     1
 45
0.0
1001
ACAD
1000
AcDbSavedByObjectVersion
1070
     0
  0
VISUALSTYLE
  5
33
102
{ACAD_REACTORS
330
2A
102
}
102
{ACAD_XDICTIONARY
360
3FE
102
}
330
2A
100
AcDbVisualStyle
  2
Realistic
 70
     8
 71
     2
 72
     2
 73
     0
 90
        0
 40
-0.6
 41
-30.0
 62
     5
 63
     7
421
 16777215
 74
     1
 91
        0
 64
     7
 65
   257
 75
     1
175
     1
 42
1.0
 92
        8
 66
     8
424
  7895160
 43
1.0
 76
     1
 77
     6
 78
     2
 67
     7
 79
     5
170
     0
171
     0
290
     0
174
     0
 93
       13
 44
0.0
173
     0
291
     0
 45
0.0
1001
ACAD
1000
AcDbSavedByObjectVersion
1070
     0
  0
VISUALSTYLE
  5
37
102
{ACAD_REACTORS
330
2A
102
}
102
{ACAD_XDICTIONARY
360
406
102
}
330
2A
100
AcDbVisualStyle
  2
Thicken
 70
    13
 71
     2
 72
     2
 73
     0
 90
        0
 40
-0.6
 41
-30.0
 62
     5
 63
     7
421
 16777215
 74
     1
 91
        4
 64
     7
 65
   257
 75
     1
175
     1
 42
1.0
 92
       12
 66
     7
 43
1.0
 76
     1
 77
     6
 78
     2
 67
     7
 79
     5
170
     0
171
     0
290
     0
174
     0
 93
        1
 44
0.0
173
     0
291
     1
 45
0.0
1001
ACAD
1000
AcDbSavedByObjectVersion
1070
     0
  0
DICTIONARY
  5
410
330
3D
100
AcDbDictionary
280
     1
281
     1
  3
ACAD_XREC_ROUNDTRIP
360
411
  0
DICTIONARY
  5
40E
330
3C
100
AcDbDictionary
280
     1
281
     1
  3
ACAD_XREC_ROUNDTRIP
360
40F
  0
DICTIONARY
  5
412
330
3E
100
AcDbDictionary
280
     1
281
     1
  3
ACAD_XREC_ROUNDTRIP
360
413
  0
DICTIONARY
  5
3F6
330
2F
100
AcDbDictionary
280
     1
281
     1
  3
ACAD_XREC_ROUNDTRIP
360
3F7
  0
DICTIONARY
  5
3FA
330
31
100
AcDbDictionary
280
     1
281
     1
  3
ACAD_XREC_ROUNDTRIP
360
3FB
  0
DICTIONARY
  5
3F8
330
30
100
AcDbDictionary
280
     1
281
     1
  3
ACAD_XREC_ROUNDTRIP
360
3F9
  0
DICTIONARY
  5
3FC
330
32
100
AcDbDictionary
280
     1
281
     1
  3
ACAD_XREC_ROUNDTRIP
360
3FD
  0
DICTIONARY
  5
404
330
36
100
AcDbDictionary
280
     1
281
     1
  3
ACAD_XREC_ROUNDTRIP
360
405
  0
DICTIONARY
  5
40C
330
3A
100
AcDbDictionary
280
     1
281
     1
  3
ACAD_XREC_ROUNDTRIP
360
40D
  0
DICTIONARY
  5
400
330
34
100
AcDbDictionary
280
     1
281
     1
  3
ACAD_XREC_ROUNDTRIP
360
401
  0
DICTIONARY
  5
402
330
35
100
AcDbDictionary
280
     1
281
     1
  3
ACAD_XREC_ROUNDTRIP
360
403
  0
DICTIONARY
  5
40A
330
39
100
AcDbDictionary
280
     1
281
     1
  3
ACAD_XREC_ROUNDTRIP
360
40B
  0
DICTIONARY
  5
3EE
330
2B
100
AcDbDictionary
280
     1
281
     1
  3
ACAD_XREC_ROUNDTRIP
360
3EF
  0
DICTIONARY
  5
3F0
330
2C
100
AcDbDictionary
280
     1
281
     1
  3
ACAD_XREC_ROUNDTRIP
360
3F1
  0
DICTIONARY
  5
3F2
330
2D
100
AcDbDictionary
280
     1
281
     1
  3
ACAD_XREC_ROUNDTRIP
360
3F3
  0
DICTIONARY
  5
3F4
330
2E
100
AcDbDictionary
280
     1
281
     1
  3
ACAD_XREC_ROUNDTRIP
360
3F5
  0
DICTIONARY
  5
408
330
38
100
AcDbDictionary
280
     1
281
     1
  3
ACAD_XREC_ROUNDTRIP
360
409
  0
DICTIONARY
  5
3FE
330
33
100
AcDbDictionary
280
     1
281
     1
  3
ACAD_XREC_ROUNDTRIP
360
3FF
  0
DICTIONARY
  5
406
330
37
100
AcDbDictionary
280
     1
281
     1
  3
ACAD_XREC_ROUNDTRIP
360
407
  0
XRECORD
  5
411
102
{ACAD_REACTORS
330
410
102
}
330
410
100
AcDbXrecord
280
     1
102
MATERIAL
148
0.0
149
0.0
149
0.0
 93
        0
 94
      127
282
     0
 72
     1
 77
     1
171
     1
175
     1
179
     1
273
     0
  0
XRECORD
  5
40F
102
{ACAD_REACTORS
330
40E
102
}
330
40E
100
AcDbXrecord
280
     1
102
MATERIAL
148
0.0
149
0.0
149
0.0
 93
        0
 94
      127
282
     0
 72
     1
 77
     1
171
     1
175
     1
179
     1
273
     0
  0
XRECORD
  5
413
102
{ACAD_REACTORS
330
412
102
}
330
412
100
AcDbXrecord
280
     1
102
MATERIAL
148
0.0
149
0.0
149
0.0
 93
        0
 94
      127
282
     0
 72
     1
 77
     1
171
     1
175
     1
179
     1
273
     0
  0
XRECORD
  5
3F7
102
{ACAD_REACTORS
330
3F6
102
}
330
3F6
100
AcDbXrecord
280
     1
102
RTVSPropertyOp0
 70
     1
102
RTVSPropertyOp1
 70
     1
102
RTVSPropertyOp2
 70
     1
102
RTVSPropertyOp3
 70
     1
102
RTVSPropertyOp4
 70
     1
102
RTVSPropertyOp5
 70
     1
102
RTVSPropertyOp6
 70
     1
102
RTVSPropertyOp7
 70
     1
102
RTVSPropertyOp8
 70
     1
102
RTVSPropertyOp9
 70
     1
102
RTVSPropertyOp10
 70
     1
102
RTVSPropertyOp11
 70
     1
102
RTVSPropertyOp12
 70
     1
102
RTVSPropertyOp13
 70
     1
102
RTVSPropertyOp14
 70
     1
102
RTVSPropertyOp15
 70
     1
102
RTVSPropertyOp16
 70
     1
102
RTVSPropertyOp17
 70
     1
102
RTVSPropertyOp18
 70
     1
102
RTVSPropertyOp19
 70
     1
102
RTVSPropertyOp20
 70
     1
102
RTVSPropertyOp21
 70
     1
102
RTVSPropertyOp22
 70
     1
102
RTVSPropertyOp23
 70
     1
102
RTVSPropertyOp24
 70
     1
102
RTVSPropertyOp25
 70
     1
102
RTVSPropertyOp26
 70
     1
102
RTVSPropertyOp27
 70
     1
102
RTVSPropertyOp28
 70
     1
102
RTVSPropertyOp29
 70
     1
102
RTVSPropertyOp30
 70
     1
102
RTVSPropertyOp31
 70
     1
102
RTVSPropertyOp32
 70
     1
  0
XRECORD
  5
3FB
102
{ACAD_REACTORS
330
3FA
102
}
330
3FA
100
AcDbXrecord
280
     1
102
RTVSPropertyOp0
 70
     1
102
RTVSPropertyOp1
 70
     1
102
RTVSPropertyOp2
 70
     1
102
RTVSPropertyOp3
 70
     1
102
RTVSPropertyOp4
 70
     1
102
RTVSPropertyOp5
 70
     1
102
RTVSPropertyOp6
 70
     1
102
RTVSPropertyOp7
 70
     1
102
RTVSPropertyOp8
 70
     1
102
RTVSPropertyOp9
 70
     1
102
RTVSPropertyOp10
 70
     1
102
RTVSPropertyOp11
 70
     1
102
RTVSPropertyOp12
 70
     1
102
RTVSPropertyOp13
 70
     1
102
RTVSPropertyOp14
 70
     1
102
RTVSPropertyOp15
 70
     1
102
RTVSPropertyOp16
 70
     1
102
RTVSPropertyOp17
 70
     1
102
RTVSPropertyOp18
 70
     1
102
RTVSPropertyOp19
 70
     1
102
RTVSPropertyOp20
 70
     1
102
RTVSPropertyOp21
 70
     1
102
RTVSPropertyOp22
 70
     1
102
RTVSPropertyOp23
 70
     1
102
RTVSPropertyOp24
 70
     1
102
RTVSPropertyOp25
 70
     1
102
RTVSPropertyOp26
 70
     1
102
RTVSPropertyOp27
 70
     1
102
RTVSPropertyOp28
 70
     1
102
RTVSPropertyOp29
 70
     1
102
RTVSPropertyOp30
 70
     1
102
RTVSPropertyOp31
 70
     1
102
RTVSPropertyOp32
 70
     1
  0
XRECORD
  5
3F9
102
{ACAD_REACTORS
330
3F8
102
}
330
3F8
100
AcDbXrecord
280
     1
102
RTVSPropertyOp0
 70
     1
102
RTVSPropertyOp1
 70
     1
102
RTVSPropertyOp2
 70
     1
102
RTVSPropertyOp3
 70
     1
102
RTVSPropertyOp4
 70
     1
102
RTVSPropertyOp5
 70
     1
102
RTVSPropertyOp6
 70
     1
102
RTVSPropertyOp7
 70
     1
102
RTVSPropertyOp8
 70
     1
102
RTVSPropertyOp9
 70
     1
102
RTVSPropertyOp10
 70
     1
102
RTVSPropertyOp11
 70
     1
102
RTVSPropertyOp12
 70
     1
102
RTVSPropertyOp13
 70
     1
102
RTVSPropertyOp14
 70
     1
102
RTVSPropertyOp15
 70
     1
102
RTVSPropertyOp16
 70
     1
102
RTVSPropertyOp17
 70
     1
102
RTVSPropertyOp18
 70
     1
102
RTVSPropertyOp19
 70
     1
102
RTVSPropertyOp20
 70
     1
102
RTVSPropertyOp21
 70
     1
102
RTVSPropertyOp22
 70
     1
102
RTVSPropertyOp23
 70
     1
102
RTVSPropertyOp24
 70
     1
102
RTVSPropertyOp25
 70
     1
102
RTVSPropertyOp26
 70
     1
102
RTVSPropertyOp27
 70
     1
102
RTVSPropertyOp28
 70
     1
102
RTVSPropertyOp29
 70
     1
102
RTVSPropertyOp30
 70
     1
102
RTVSPropertyOp31
 70
     1
102
RTVSPropertyOp32
 70
     1
  0
XRECORD
  5
3FD
102
{ACAD_REACTORS
330
3FC
102
}
330
3FC
100
AcDbXrecord
280
     1
102
RTVSPropertyOp0
 70
     1
102
RTVSPropertyOp1
 70
     1
102
RTVSPropertyOp2
 70
     1
102
RTVSPropertyOp3
 70
     1
102
RTVSPropertyOp4
 70
     1
102
RTVSPropertyOp5
 70
     1
102
RTVSPropertyOp6
 70
     1
102
RTVSPropertyOp7
 70
     1
102
RTVSPropertyOp8
 70
     1
102
RTVSPropertyOp9
 70
     1
102
RTVSPropertyOp10
 70
     1
102
RTVSPropertyOp11
 70
     1
102
RTVSPropertyOp12
 70
     1
102
RTVSPropertyOp13
 70
     1
102
RTVSPropertyOp14
 70
     1
102
RTVSPropertyOp15
 70
     1
102
RTVSPropertyOp16
 70
     1
102
RTVSPropertyOp17
 70
     1
102
RTVSPropertyOp18
 70
     1
102
RTVSPropertyOp19
 70
     1
102
RTVSPropertyOp20
 70
     1
102
RTVSPropertyOp21
 70
     1
102
RTVSPropertyOp22
 70
     1
102
RTVSPropertyOp23
 70
     1
102
RTVSPropertyOp24
 70
     1
102
RTVSPropertyOp25
 70
     1
102
RTVSPropertyOp26
 70
     1
102
RTVSPropertyOp27
 70
     1
102
RTVSPropertyOp28
 70
     1
102
RTVSPropertyOp29
 70
     1
102
RTVSPropertyOp30
 70
     1
102
RTVSPropertyOp31
 70
     1
102
RTVSPropertyOp32
 70
     1
  0
XRECORD
  5
405
102
{ACAD_REACTORS
330
404
102
}
330
404
100
AcDbXrecord
280
     1
102
RTVSPropertyOp0
 70
     1
102
RTVSPropertyOp1
 70
     1
102
RTVSPropertyOp2
 70
     1
102
RTVSPropertyOp3
 70
     1
102
RTVSPropertyOp4
 70
     1
102
RTVSPropertyOp5
 70
     1
102
RTVSPropertyOp6
 70
     1
102
RTVSPropertyOp7
 70
     1
102
RTVSPropertyOp8
 70
     1
102
RTVSPropertyOp9
 70
     1
102
RTVSPropertyOp10
 70
     1
102
RTVSPropertyOp11
 70
     1
102
RTVSPropertyOp12
 70
     1
102
RTVSPropertyOp13
 70
     1
102
RTVSPropertyOp14
 70
     1
102
RTVSPropertyOp15
 70
     1
102
RTVSPropertyOp16
 70
     1
102
RTVSPropertyOp17
 70
     1
102
RTVSPropertyOp18
 70
     1
102
RTVSPropertyOp19
 70
     1
102
RTVSPropertyOp20
 70
     1
102
RTVSPropertyOp21
 70
     1
102
RTVSPropertyOp22
 70
     1
102
RTVSPropertyOp23
 70
     1
102
RTVSPropertyOp24
 70
     1
102
RTVSPropertyOp25
 70
     1
102
RTVSPropertyOp26
 70
     1
102
RTVSPropertyOp27
 70
     1
102
RTVSPropertyOp28
 70
     1
102
RTVSPropertyOp29
 70
     1
102
RTVSPropertyOp30
 70
     1
102
RTVSPropertyOp31
 70
     1
102
RTVSPropertyOp32
 70
     1
  0
XRECORD
  5
40D
102
{ACAD_REACTORS
330
40C
102
}
330
40C
100
AcDbXrecord
280
     1
102
RTVSPropertyOp0
 70
     1
102
RTVSPropertyOp1
 70
     1
102
RTVSPropertyOp2
 70
     1
102
RTVSPropertyOp3
 70
     1
102
RTVSPropertyOp4
 70
     1
102
RTVSPropertyOp5
 70
     1
102
RTVSPropertyOp6
 70
     1
102
RTVSPropertyOp7
 70
     1
102
RTVSPropertyOp8
 70
     1
102
RTVSPropertyOp9
 70
     1
102
RTVSPropertyOp10
 70
     1
102
RTVSPropertyOp11
 70
     1
102
RTVSPropertyOp12
 70
     1
102
RTVSPropertyOp13
 70
     1
102
RTVSPropertyOp14
 70
     1
102
RTVSPropertyOp15
 70
     1
102
RTVSPropertyOp16
 70
     1
102
RTVSPropertyOp17
 70
     1
102
RTVSPropertyOp18
 70
     1
102
RTVSPropertyOp19
 70
     1
102
RTVSPropertyOp20
 70
     1
102
RTVSPropertyOp21
 70
     1
102
RTVSPropertyOp22
 70
     1
102
RTVSPropertyOp23
 70
     1
102
RTVSPropertyOp24
 70
     1
102
RTVSPropertyOp25
 70
     1
102
RTVSPropertyOp26
 70
     1
102
RTVSPropertyOp27
 70
     1
102
RTVSPropertyOp28
 70
     1
102
RTVSPropertyOp29
 70
     1
102
RTVSPropertyOp30
 70
     1
102
RTVSPropertyOp31
 70
     1
102
RTVSPropertyOp32
 70
     1
  0
XRECORD
  5
401
102
{ACAD_REACTORS
330
400
102
}
330
400
100
AcDbXrecord
280
     1
102
RTVSPropertyOp0
 70
     1
102
RTVSPropertyOp1
 70
     1
102
RTVSPropertyOp2
 70
     1
102
RTVSPropertyOp3
 70
     1
102
RTVSPropertyOp4
 70
     1
102
RTVSPropertyOp5
 70
     1
102
RTVSPropertyOp6
 70
     1
102
RTVSPropertyOp7
 70
     1
102
RTVSPropertyOp8
 70
     1
102
RTVSPropertyOp9
 70
     1
102
RTVSPropertyOp10
 70
     1
102
RTVSPropertyOp11
 70
     1
102
RTVSPropertyOp12
 70
     1
102
RTVSPropertyOp13
 70
     1
102
RTVSPropertyOp14
 70
     1
102
RTVSPropertyOp15
 70
     1
102
RTVSPropertyOp16
 70
     1
102
RTVSPropertyOp17
 70
     1
102
RTVSPropertyOp18
 70
     1
102
RTVSPropertyOp19
 70
     1
102
RTVSPropertyOp20
 70
     1
102
RTVSPropertyOp21
 70
     1
102
RTVSPropertyOp22
 70
     1
102
RTVSPropertyOp23
 70
     1
102
RTVSPropertyOp24
 70
     1
102
RTVSPropertyOp25
 70
     1
102
RTVSPropertyOp26
 70
     1
102
RTVSPropertyOp27
 70
     1
102
RTVSPropertyOp28
 70
     1
102
RTVSPropertyOp29
 70
     1
102
RTVSPropertyOp30
 70
     1
102
RTVSPropertyOp31
 70
     1
102
RTVSPropertyOp32
 70
     1
  0
XRECORD
  5
403
102
{ACAD_REACTORS
330
402
102
}
330
402
100
AcDbXrecord
280
     1
102
RTVSPropertyOp0
 70
     1
102
RTVSPropertyOp1
 70
     1
102
RTVSPropertyOp2
 70
     1
102
RTVSPropertyOp3
 70
     1
102
RTVSPropertyOp4
 70
     1
102
RTVSPropertyOp5
 70
     1
102
RTVSPropertyOp6
 70
     1
102
RTVSPropertyOp7
 70
     1
102
RTVSPropertyOp8
 70
     1
102
RTVSPropertyOp9
 70
     1
102
RTVSPropertyOp10
 70
     1
102
RTVSPropertyOp11
 70
     1
102
RTVSPropertyOp12
 70
     1
102
RTVSPropertyOp13
 70
     1
102
RTVSPropertyOp14
 70
     1
102
RTVSPropertyOp15
 70
     1
102
RTVSPropertyOp16
 70
     1
102
RTVSPropertyOp17
 70
     1
102
RTVSPropertyOp18
 70
     1
102
RTVSPropertyOp19
 70
     1
102
RTVSPropertyOp20
 70
     1
102
RTVSPropertyOp21
 70
     1
102
RTVSPropertyOp22
 70
     1
102
RTVSPropertyOp23
 70
     1
102
RTVSPropertyOp24
 70
     1
102
RTVSPropertyOp25
 70
     1
102
RTVSPropertyOp26
 70
     1
102
RTVSPropertyOp27
 70
     1
102
RTVSPropertyOp28
 70
     1
102
RTVSPropertyOp29
 70
     1
102
RTVSPropertyOp30
 70
     1
102
RTVSPropertyOp31
 70
     1
102
RTVSPropertyOp32
 70
     1
  0
XRECORD
  5
40B
102
{ACAD_REACTORS
330
40A
102
}
330
40A
100
AcDbXrecord
280
     1
102
RTVSPropertyOp0
 70
     1
102
RTVSPropertyOp1
 70
     1
102
RTVSPropertyOp2
 70
     1
102
RTVSPropertyOp3
 70
     1
102
RTVSPropertyOp4
 70
     1
102
RTVSPropertyOp5
 70
     1
102
RTVSPropertyOp6
 70
     1
102
RTVSPropertyOp7
 70
     1
102
RTVSPropertyOp8
 70
     1
102
RTVSPropertyOp9
 70
     1
102
RTVSPropertyOp10
 70
     1
102
RTVSPropertyOp11
 70
     1
102
RTVSPropertyOp12
 70
     1
102
RTVSPropertyOp13
 70
     1
102
RTVSPropertyOp14
 70
     1
102
RTVSPropertyOp15
 70
     1
102
RTVSPropertyOp16
 70
     1
102
RTVSPropertyOp17
 70
     1
102
RTVSPropertyOp18
 70
     1
102
RTVSPropertyOp19
 70
     1
102
RTVSPropertyOp20
 70
     1
102
RTVSPropertyOp21
 70
     1
102
RTVSPropertyOp22
 70
     1
102
RTVSPropertyOp23
 70
     1
102
RTVSPropertyOp24
 70
     1
102
RTVSPropertyOp25
 70
     1
102
RTVSPropertyOp26
 70
     1
102
RTVSPropertyOp27
 70
     1
102
RTVSPropertyOp28
 70
     1
102
RTVSPropertyOp29
 70
     1
102
RTVSPropertyOp30
 70
     1
102
RTVSPropertyOp31
 70
     1
102
RTVSPropertyOp32
 70
     1
  0
XRECORD
  5
3EF
102
{ACAD_REACTORS
330
3EE
102
}
330
3EE
100
AcDbXrecord
280
     1
102
RTVSPropertyOp0
 70
     1
102
RTVSPropertyOp1
 70
     1
102
RTVSPropertyOp2
 70
     1
102
RTVSPropertyOp3
 70
     1
102
RTVSPropertyOp4
 70
     1
102
RTVSPropertyOp5
 70
     1
102
RTVSPropertyOp6
 70
     1
102
RTVSPropertyOp7
 70
     1
102
RTVSPropertyOp8
 70
     1
102
RTVSPropertyOp9
 70
     1
102
RTVSPropertyOp10
 70
     1
102
RTVSPropertyOp11
 70
     1
102
RTVSPropertyOp12
 70
     1
102
RTVSPropertyOp13
 70
     1
102
RTVSPropertyOp14
 70
     1
102
RTVSPropertyOp15
 70
     1
102
RTVSPropertyOp16
 70
     1
102
RTVSPropertyOp17
 70
     1
102
RTVSPropertyOp18
 70
     1
102
RTVSPropertyOp19
 70
     1
102
RTVSPropertyOp20
 70
     1
102
RTVSPropertyOp21
 70
     1
102
RTVSPropertyOp22
 70
     1
102
RTVSPropertyOp23
 70
     1
102
RTVSPropertyOp24
 70
     1
102
RTVSPropertyOp25
 70
     1
102
RTVSPropertyOp26
 70
     1
102
RTVSPropertyOp27
 70
     1
102
RTVSPropertyOp28
 70
     1
102
RTVSPropertyOp29
 70
     1
102
RTVSPropertyOp30
 70
     1
102
RTVSPropertyOp31
 70
     1
102
RTVSPropertyOp32
 70
     1
  0
XRECORD
  5
3F1
102
{ACAD_REACTORS
330
3F0
102
}
330
3F0
100
AcDbXrecord
280
     1
102
RTVSPropertyOp0
 70
     1
102
RTVSPropertyOp1
 70
     1
102
RTVSPropertyOp2
 70
     1
102
RTVSPropertyOp3
 70
     1
102
RTVSPropertyOp4
 70
     1
102
RTVSPropertyOp5
 70
     1
102
RTVSPropertyOp6
 70
     1
102
RTVSPropertyOp7
 70
     1
102
RTVSPropertyOp8
 70
     1
102
RTVSPropertyOp9
 70
     1
102
RTVSPropertyOp10
 70
     1
102
RTVSPropertyOp11
 70
     1
102
RTVSPropertyOp12
 70
     1
102
RTVSPropertyOp13
 70
     1
102
RTVSPropertyOp14
 70
     1
102
RTVSPropertyOp15
 70
     1
102
RTVSPropertyOp16
 70
     1
102
RTVSPropertyOp17
 70
     1
102
RTVSPropertyOp18
 70
     1
102
RTVSPropertyOp19
 70
     1
102
RTVSPropertyOp20
 70
     1
102
RTVSPropertyOp21
 70
     1
102
RTVSPropertyOp22
 70
     1
102
RTVSPropertyOp23
 70
     1
102
RTVSPropertyOp24
 70
     1
102
RTVSPropertyOp25
 70
     1
102
RTVSPropertyOp26
 70
     1
102
RTVSPropertyOp27
 70
     1
102
RTVSPropertyOp28
 70
     1
102
RTVSPropertyOp29
 70
     1
102
RTVSPropertyOp30
 70
     1
102
RTVSPropertyOp31
 70
     1
102
RTVSPropertyOp32
 70
     1
  0
XRECORD
  5
3F3
102
{ACAD_REACTORS
330
3F2
102
}
330
3F2
100
AcDbXrecord
280
     1
102
RTVSPropertyOp0
 70
     1
102
RTVSPropertyOp1
 70
     1
102
RTVSPropertyOp2
 70
     1
102
RTVSPropertyOp3
 70
     1
102
RTVSPropertyOp4
 70
     1
102
RTVSPropertyOp5
 70
     1
102
RTVSPropertyOp6
 70
     1
102
RTVSPropertyOp7
 70
     1
102
RTVSPropertyOp8
 70
     1
102
RTVSPropertyOp9
 70
     1
102
RTVSPropertyOp10
 70
     1
102
RTVSPropertyOp11
 70
     1
102
RTVSPropertyOp12
 70
     1
102
RTVSPropertyOp13
 70
     1
102
RTVSPropertyOp14
 70
     1
102
RTVSPropertyOp15
 70
     1
102
RTVSPropertyOp16
 70
     1
102
RTVSPropertyOp17
 70
     1
102
RTVSPropertyOp18
 70
     1
102
RTVSPropertyOp19
 70
     1
102
RTVSPropertyOp20
 70
     1
102
RTVSPropertyOp21
 70
     1
102
RTVSPropertyOp22
 70
     1
102
RTVSPropertyOp23
 70
     1
102
RTVSPropertyOp24
 70
     1
102
RTVSPropertyOp25
 70
     1
102
RTVSPropertyOp26
 70
     1
102
RTVSPropertyOp27
 70
     1
102
RTVSPropertyOp28
 70
     1
102
RTVSPropertyOp29
 70
     1
102
RTVSPropertyOp30
 70
     1
102
RTVSPropertyOp31
 70
     1
102
RTVSPropertyOp32
 70
     1
  0
XRECORD
  5
3F5
102
{ACAD_REACTORS
330
3F4
102
}
330
3F4
100
AcDbXrecord
280
     1
102
RTVSPropertyOp0
 70
     1
102
RTVSPropertyOp1
 70
     1
102
RTVSPropertyOp2
 70
     1
102
RTVSPropertyOp3
 70
     1
102
RTVSPropertyOp4
 70
     1
102
RTVSPropertyOp5
 70
     1
102
RTVSPropertyOp6
 70
     1
102
RTVSPropertyOp7
 70
     1
102
RTVSPropertyOp8
 70
     1
102
RTVSPropertyOp9
 70
     1
102
RTVSPropertyOp10
 70
     1
102
RTVSPropertyOp11
 70
     1
102
RTVSPropertyOp12
 70
     1
102
RTVSPropertyOp13
 70
     1
102
RTVSPropertyOp14
 70
     1
102
RTVSPropertyOp15
 70
     1
102
RTVSPropertyOp16
 70
     1
102
RTVSPropertyOp17
 70
     1
102
RTVSPropertyOp18
 70
     1
102
RTVSPropertyOp19
 70
     1
102
RTVSPropertyOp20
 70
     1
102
RTVSPropertyOp21
 70
     1
102
RTVSPropertyOp22
 70
     1
102
RTVSPropertyOp23
 70
     1
102
RTVSPropertyOp24
 70
     1
102
RTVSPropertyOp25
 70
     1
102
RTVSPropertyOp26
 70
     1
102
RTVSPropertyOp27
 70
     1
102
RTVSPropertyOp28
 70
     1
102
RTVSPropertyOp29
 70
     1
102
RTVSPropertyOp30
 70
     1
102
RTVSPropertyOp31
 70
     1
102
RTVSPropertyOp32
 70
     1
  0
XRECORD
  5
409
102
{ACAD_REACTORS
330
408
102
}
330
408
100
AcDbXrecord
280
     1
102
RTVSPropertyOp0
 70
     1
102
RTVSPropertyOp1
 70
     1
102
RTVSPropertyOp2
 70
     1
102
RTVSPropertyOp3
 70
     1
102
RTVSPropertyOp4
 70
     1
102
RTVSPropertyOp5
 70
     1
102
RTVSPropertyOp6
 70
     1
102
RTVSPropertyOp7
 70
     1
102
RTVSPropertyOp8
 70
     1
102
RTVSPropertyOp9
 70
     1
102
RTVSPropertyOp10
 70
     1
102
RTVSPropertyOp11
 70
     1
102
RTVSPropertyOp12
 70
     1
102
RTVSPropertyOp13
 70
     1
102
RTVSPropertyOp14
 70
     1
102
RTVSPropertyOp15
 70
     1
102
RTVSPropertyOp16
 70
     1
102
RTVSPropertyOp17
 70
     1
102
RTVSPropertyOp18
 70
     1
102
RTVSPropertyOp19
 70
     1
102
RTVSPropertyOp20
 70
     1
102
RTVSPropertyOp21
 70
     1
102
RTVSPropertyOp22
 70
     1
102
RTVSPropertyOp23
 70
     1
102
RTVSPropertyOp24
 70
     1
102
RTVSPropertyOp25
 70
     1
102
RTVSPropertyOp26
 70
     1
102
RTVSPropertyOp27
 70
     1
102
RTVSPropertyOp28
 70
     1
102
RTVSPropertyOp29
 70
     1
102
RTVSPropertyOp30
 70
     1
102
RTVSPropertyOp31
 70
     1
102
RTVSPropertyOp32
 70
     1
  0
XRECORD
  5
3FF
102
{ACAD_REACTORS
330
3FE
102
}
330
3FE
100
AcDbXrecord
280
     1
102
RTVSPropertyOp0
 70
     1
102
RTVSPropertyOp1
 70
     1
102
RTVSPropertyOp2
 70
     1
102
RTVSPropertyOp3
 70
     1
102
RTVSPropertyOp4
 70
     1
102
RTVSPropertyOp5
 70
     1
102
RTVSPropertyOp6
 70
     1
102
RTVSPropertyOp7
 70
     1
102
RTVSPropertyOp8
 70
     1
102
RTVSPropertyOp9
 70
     1
102
RTVSPropertyOp10
 70
     1
102
RTVSPropertyOp11
 70
     1
102
RTVSPropertyOp12
 70
     1
102
RTVSPropertyOp13
 70
     1
102
RTVSPropertyOp14
 70
     1
102
RTVSPropertyOp15
 70
     1
102
RTVSPropertyOp16
 70
     1
102
RTVSPropertyOp17
 70
     1
102
RTVSPropertyOp18
 70
     1
102
RTVSPropertyOp19
 70
     1
102
RTVSPropertyOp20
 70
     1
102
RTVSPropertyOp21
 70
     1
102
RTVSPropertyOp22
 70
     1
102
RTVSPropertyOp23
 70
     1
102
RTVSPropertyOp24
 70
     1
102
RTVSPropertyOp25
 70
     1
102
RTVSPropertyOp26
 70
     1
102
RTVSPropertyOp27
 70
     1
102
RTVSPropertyOp28
 70
     1
102
RTVSPropertyOp29
 70
     1
102
RTVSPropertyOp30
 70
     1
102
RTVSPropertyOp31
 70
     1
102
RTVSPropertyOp32
 70
     1
  0
XRECORD
  5
407
102
{ACAD_REACTORS
330
406
102
}
330
406
100
AcDbXrecord
280
     1
102
RTVSPropertyOp0
 70
     1
102
RTVSPropertyOp1
 70
     1
102
RTVSPropertyOp2
 70
     1
102
RTVSPropertyOp3
 70
     1
102
RTVSPropertyOp4
 70
     1
102
RTVSPropertyOp5
 70
     1
102
RTVSPropertyOp6
 70
     1
102
RTVSPropertyOp7
 70
     1
102
RTVSPropertyOp8
 70
     1
102
RTVSPropertyOp9
 70
     1
102
RTVSPropertyOp10
 70
     1
102
RTVSPropertyOp11
 70
     1
102
RTVSPropertyOp12
 70
     1
102
RTVSPropertyOp13
 70
     1
102
RTVSPropertyOp14
 70
     1
102
RTVSPropertyOp15
 70
     1
102
RTVSPropertyOp16
 70
     1
102
RTVSPropertyOp17
 70
     1
102
RTVSPropertyOp18
 70
     1
102
RTVSPropertyOp19
 70
     1
102
RTVSPropertyOp20
 70
     1
102
RTVSPropertyOp21
 70
     1
102
RTVSPropertyOp22
 70
     1
102
RTVSPropertyOp23
 70
     1
102
RTVSPropertyOp24
 70
     1
102
RTVSPropertyOp25
 70
     1
102
RTVSPropertyOp26
 70
     1
102
RTVSPropertyOp27
 70
     1
102
RTVSPropertyOp28
 70
     1
102
RTVSPropertyOp29
 70
     1
102
RTVSPropertyOp30
 70
     1
102
RTVSPropertyOp31
 70
     1
102
RTVSPropertyOp32
 70
     1
  0
ENDSEC
  0
EOF
